Супергерої / Bling (2016) AVC 2xUkr/Eng | Sub Eng

Нові коментарі

Нова тема   Відповісти
Автор Повідомлення
Anonymous 







2021-03-11 15:42  
Супергерої / Bling (2016) AVC 2xUkr/Eng | Sub Eng

Супергерої / Bling (2016) AVC 2xUkr/Eng | Sub Eng


Жанр: анімація, сімейний
Країна: США, Південна Корея



Кінокомпанія: Digiart Productions
Режисер: Кюнг Хо Лі
Ролі озвучують: Тейлор Кітч, Дженнет Маккарді, Джеймс Вудс, Карла Гуджино, Джон Хідер

Сюжет:
Головні герої мультфільму Сью і Сем знайомі з дитинства. І вже багато років Сью знає про те, як сильно Сем її любить. Але не дивлячись на силу своїх почуттів, він все ніяк не може зважитися зізнатися в них. Можливо, Сем хоче зробити ідеальною свою пропозицію руки і серця? Він навіть обручку підібрав – найкращу в місті. І вже спланував, як все повинно статися. Напоготові повітряна куля, оркестр ретельно репетирував романтичну мелодію. Але всі плани руйнує поява коротуна Оскара. Його новітній суперробот готовий в лічені години стерти місто з лиця землі. Під загрозою не лише романтичне побачення. Життя всіх городян тепер в небезпеці. Врятувати ситуацію зможуть тільки супергерої. І було б дивно, якби команду рятувальників очолив хтось інший, крім Сема.


Тривалість: 01:21:16
Якість: AVC

Відео:
кодек:
розмір кадру: 1024x576
бітрейт: 2 994 кб/с

Аудіо # 1:
мова: українська
озвучення: професійне, багатоголосе закадрове
кодек: 2.0 [stereo]
бітрейт: 192 кб/с
примітка: запис з DVB-С (18 kHz)

Аудіо # 2:
мова: українська
озвучення: професійне, багатоголосе закадрове
кодек: 2.0
бітрейт: 192 кб/с

Аудіо # 2:
мова: англійська
озвучення: оригінал
кодек: 5.1
бітрейт: 448 кб/с

Субтитри # 1 (Повні):
мова: англійська
тип: програмні (м'які)
формат: *.srt

Субтитри # 2 (Повні, для людей з вадами слуху):
мова: англійська
тип: програмні (м'які)
формат: *.srt

Скріншоти
Info
Код:
General
Unique ID                      : 70369950865049256348051935331950336508 (0x34F0C2723C75E7514541C75A292119FC)
Complete name                  : D:\Bling (2016) AVC [2xUKR_ENG] [Hurtom].
Format                         :
Format version                 : Version 4 / Version 2
File size                      : 2.17 GiB
Duration                       : 1 h 21 min
Overall bit rate               : 3 824 kb/s
Movie name                     : Супергерої / Bling (2016)
Encoded date                   : UTC 2021-03-11 09:51:07
Writing application            : v51.0.0 ('I Wish') 32-bit
Writing library                : libebml v1.4.0 + v1.6.2
Cover                          : Yes
Attachments                    : cover.jpg

Video
ID                             : 1
Format                         : AVC
Format/Info                    : Advanced Video Codec
Format profile                 : [email protected]
Format settings, CABAC         : Yes
Format settings, RefFrames     : 12 frames
Codec ID                       : V_MPEG4/ISO/AVC
Duration                       : 1 h 21 min
Bit rate                       : 2 994 kb/s
Width                          : 1 024 pixels
Height                         : 576 pixels
Display aspect ratio           : 16:9
Frame rate mode                : Constant
Frame rate                     : 24.000 FPS
Color space                    : YUV
Chroma subsampling             : 4:2:0
Bit depth                      : 8 bits
Scan type                      : Progressive
Bits/(Pixel*Frame)             : 0.212
Stream size                    : 1.70 GiB (78%)
Writing library                : core 146 r2538 121396c
Encoding settings              : cabac=1 / ref=12 / deblock=1:-3:-3 / analyse=0x3:0x113 / me=umh / subme=11 / psy=1 / psy_rd=1.00:0.00 / mixed_ref=1 / me_range=48 / chroma_me=1 / trellis=2 / 8x8dct=1 / cqm=0 / deadzone=21,11 / fast_pskip=0 / chroma_qp_offset=-2 / threads=12 / lookahead_threads=3 / sliced_threads=0 / nr=0 / decimate=0 / interlaced=0 / bluray_compat=0 / constrained_intra=0 / bframes=11 / b_pyramid=2 / b_adapt=2 / b_bias=0 / direct=3 / weightb=1 / open_gop=0 / weightp=2 / keyint=240 / keyint_min=24 / scenecut=40 / intra_refresh=0 / rc_lookahead=40 / rc=2pass / mbtree=1 / bitrate=2994 / ratetol=1.0 / qcomp=0.60 / qpmin=0 / qpmax=69 / qpstep=4 / cplxblur=20.0 / qblur=0.5 / vbv_maxrate=50000 / vbv_bufsize=62500 / nal_hrd=none / filler=0 / ip_ratio=1.40 / aq=1:1.00
Language                       : English
Default                        : Yes
Forced                         : No

Audio #1
ID                             : 2
Format                         : AC-3
Format/Info                    : Audio Coding 3
Format settings, Endianness    : Big
Codec ID                       : A_AC3
Duration                       : 1 h 21 min
Bit rate mode                  : Constant
Bit rate                       : 192 kb/s
Channel(s)                     : 2 channels
Channel positions              : Front: L R
Sampling rate                  : 48.0 kHz
Frame rate                     : 31.250 FPS (1536 SPF)
Bit depth                      : 16 bits
Compression mode               : Lossy
Stream size                    : 112 MiB (5%)
Title                          : Kids HD
Language                       : Ukrainian
Service kind                   : Complete Main
Default                        : Yes
Forced                         : Yes

Audio #2
ID                             : 3
Format                         : AC-3
Format/Info                    : Audio Coding 3
Format settings, Endianness    : Big
Codec ID                       : A_AC3
Duration                       : 1 h 21 min
Bit rate mode                  : Constant
Bit rate                       : 192 kb/s
Channel(s)                     : 2 channels
Channel positions              : Front: L R
Sampling rate                  : 48.0 kHz
Frame rate                     : 31.250 FPS (1536 SPF)
Bit depth                      : 16 bits
Compression mode               : Lossy
Stream size                    : 112 MiB (5%)
Title                          : AAA sound
Language                       : Ukrainian
Service kind                   : Complete Main
Default                        : No
Forced                         : No

Audio #3
ID                             : 4
Format                         : AC-3
Format/Info                    : Audio Coding 3
Format settings, Endianness    : Big
Codec ID                       : A_AC3
Duration                       : 1 h 21 min
Bit rate mode                  : Constant
Bit rate                       : 448 kb/s
Channel(s)                     : 6 channels
Channel positions              : Front: L C R, Side: L R, LFE
Sampling rate                  : 48.0 kHz
Frame rate                     : 31.250 FPS (1536 SPF)
Bit depth                      : 16 bits
Compression mode               : Lossy
Stream size                    : 260 MiB (12%)
Title                          : Original
Language                       : English
Service kind                   : Complete Main
Default                        : No
Forced                         : No

Text #1
ID                             : 5
Format                         : UTF-8
Codec ID                       : S_TEXT/UTF8
Codec ID/Info                  : UTF-8 Plain Text
Duration                       : 1 h 16 min
Bit rate                       : 56 b/s
Count of elements              : 1239
Stream size                    : 31.5 KiB (0%)
Title                          : Full
Language                       : English
Default                        : No
Forced                         : No

Text #2
ID                             : 6
Format                         : UTF-8
Codec ID                       : S_TEXT/UTF8
Codec ID/Info                  : UTF-8 Plain Text
Duration                       : 1 h 17 min
Bit rate                       : 64 b/s
Count of elements              : 1444
Stream size                    : 36.3 KiB (0%)
Title                          : Full (SDH)
Language                       : English
Default                        : No
Forced                         : No

Menu
00:00:00.000                   : en:Chapter 01
00:09:59.791                   : en:Chapter 02
00:20:00.000                   : en:Chapter 03
00:30:00.000                   : en:Chapter 04
00:39:59.666                   : en:Chapter 05
00:49:59.583                   : en:Chapter 06
01:00:00.000                   : en:Chapter 07
01:09:59.916                   : en:Chapter 08
Подяка пану Sando7 за доріжку #1.
Подяка пану AngryBirdsUA за доріжку #2.

Джерело:
Особиста оцінка: 0 - не дивився


 Трекер:    Зареєстрований   

Завантажити / скачати мультфільм українською



відео для новачків



 Зареєстрований:   2021-03-11 15:42
 Розмір:   2.17 GB 
 Оцінка мультфільму:   10/10 (Голосів: 5)
   
Інші релізи
   Супергерої / Bling (2016) 720p Ukr/Eng 11FrYkT  0 / 1   2.53 GB   2017-01-07 21:45 
   Супергерої / Bling (2016) 1080 Ukr/Eng Electroz  0 / 0   5.16 GB   2017-01-07 19:58 
   Супергерої / Bling (2016) AngryBirdsUA  5 / 0   1.37 GB   2017-01-07 15:56 
Ваш часовий пояс: GMT + 2 Години

Нова тема   Відповісти