Невідома Африка / Дика Африка (Міні-серіал) / Wild Africa (Mini-series) (2001) DVDRemux Ukr/Eng | Sub Eng

Нові коментарі

Нова тема   Відповісти
Автор Повідомлення
Python_3.2 
Поважний учасник


З нами з: 28.12.12
Востаннє: 11.04.21
Повідомлень: 183

2021-03-11 01:21  
Невідома Африка / Дика Африка (Міні-серіал) / Wild Africa (Mini-series) (2001) DVDRemux Ukr/Eng | Sub Eng

Невідома Африка / Дика Африка (Міні-серіал) / Wild Africa (Mini-series) (2001) DVDRemux Ukr/Eng | Sub Eng

Жанр: документальний, природничий
Країна: Велика Британія



Телеканал / кіностудія: BBC
Режисери: Мартін Колбек [Martyn Colbeck], Овен Ньюман [Owen Newman]
Оповідач: Ферґал Кін [Fergal Keane]
Композитор: Крістофер Ґанінґ [Christopher Gunning]

Сюжет:
«Дика Африка» ‒ це британський документальний серіал про природу, створений і випущений телеканалом BBC. Він досліджує природу африканського континенту. Кожен з епізодів концентрується на окремому середовищі. Оператори використовували аерофотозйомку і кадри дикої природи, щоб показати як природні явища, такі як сезонні зміни, впливають на життєвий уклад.
«Дика Африка» уособлює стиль документального серіалу високої якості, на якому «the Natural History Unit» заробив свою репутацію, зі своїми високими принципами виробництва, вражаючими візуальними ефектами і спеціальної музичної партитурою. Для досягнення цієї мети потрібно було 18 місяців основної зйомки в 53 поїздках по 22 країнах. Творцям фільму допомагала виробнича команда з 16 чоловік і близько 140 вчених і помічників на місцях. Знімальна група пройшла шлях від найнижчої точки на континенті, Данакільскої западини в Ефіопії, до найвищої ‒ вершини Кіліманджаро.
Перелік серій
  • 01. Гори / Mountains [49:03]
  • 02. Савана / Savannah [49:03]
  • 03. Пустелі / Deserts [49:00]
  • 04. Узбережжя / Coasts [49:04]
  • 05. Джунглі / Jungle [49:06]
  • 06. Річки та озера / Lakes and Rivers [48:43]
Тривалість: 1 серія: ~ 49:00 (цілком серій: 6)
Якість: DVDRemux [2xDVD9 PAL]
Відео:
кодек: MPEG-2
розмір кадру: 720 х 576
бітрейт: 5700 кб/с
контейнер:

Аудіо # 1:
мова: українська
переклад: одноголосий закадровий
кодек: 2.0
бітрейт: 192 кб/с
примітка: є неозвучені фрагменти у 3й-4й серіях, на них є переклад субтитрами

Аудіо # 2:
мова: англійська
переклад: оригінал
кодек: 5.1
бітрейт: 448 кб/с

Аудіо # 3:
мова: англійська
переклад: оригінал
кодек: 2.0
бітрейт: 192 кб/с

Субтитри # 1:
мова: українська
переклад: власний переклад
тип: програмні (м'які)
формат: *.srt
примітка: до неозвучених уривків у 3-й (16:58 - 18:40) та 4-й (09:09 - 09:33; 17:21 - 18:15; 36:44 - 37:41) серіях.

Субтитри # 2:
мова: англійська
тип: програмні (м'які)
формат: *.srt

Субтитри # 3:
мова: датська
тип: пререндерні
формат: *.sub
Info
Код:
General
Unique ID                                : 17683592723311320745680638011940012249 (0xD4DBC6F698EEBCF0CDDC6F6A35400D9)
Complete name                            : /media/amd64ryzen/WD18TB/Toloka/T_Doc/TD_Nature/TDN_MQ/Wild Africa (2001) DVDRemux 576i [UKR_ENG] [sub ENG] [Hurtom]/Wild Africa E04 Coasts (2001) DVDRemux 576i [UKR_ENG] [sub ENG].
Format                                   :
Format version                           : Version 4
File size                                : 2.24 GiB
Duration                                 : 49 min 4 s
Overall bit rate mode                    : Variable
Overall bit rate                         : 6 537 kb/s
Movie name                               : Невідома Африка Е04 Узбережжя / Wild Africa E04 Coasts (2001) DVDRemux 576i [UKR_ENG] [sub ENG] [Hurtom]
Encoded date                             : UTC 2021-03-10 20:18:12
Writing application                      : v55.0.0 ('Waiting For Space') 64-bit
Writing library                          : libebml v1.4.2 + v1.6.4
Cover                                    : Yes
Attachments                              : cover.jpg / Wild Africa (2001) DVD cover [ENG].jpg
IMDB                                     : tt2801684
TMDB                                     : tv/16586

Video
ID                                       : 1
ID in the original source medium         : 224 (0xE0)
Format                                   : MPEG Video
Format version                           : Version 2
Format profile                           : [email protected]
Format settings                          : CustomMatrix / BVOP
Format settings, BVOP                    : Yes
Format settings, Matrix                  : Custom
Format settings, GOP                     : M=3, N=15
Format settings, picture structure       : Frame
Codec ID                                 : V_MPEG2
Codec ID/Info                            : MPEG 1 or 2 Video
Duration                                 : 49 min 4 s
Bit rate mode                            : Variable
Bit rate                                 : 5 700 kb/s
Maximum bit rate                         : 8 700 kb/s
Width                                    : 720 pixels
Height                                   : 576 pixels
Display aspect ratio                     : 4:3
Frame rate mode                          : Constant
Frame rate                               : 25.000 FPS
Standard                                 : PAL
Color space                              : YUV
Chroma subsampling                       : 4:2:0
Bit depth                                : 8 bits
Scan type                                : Interlaced
Scan order                               : Top Field First
Compression mode                         : Lossy
Bits/(Pixel*Frame)                       : 0.550
Time code of first frame                 : 09:59:59:10
Time code source                         : Group of pictures header
GOP, Open/Closed                         : Open
GOP, Open/Closed of first frame          : Closed
Stream size                              : 1.95 GiB (87%)
Title                                    : MPEG-2 [DVD9], PAL, 720x576i, 5700 kb/s, 25 fps, 4:3, [email protected], 4:2:0, 8-bit
Language                                 : English
Default                                  : Yes
Forced                                   : No
Original source medium                   : DVD-Video

Audio #1
ID                                       : 2
Format                                   : AC-3
Format/Info                              : Audio Coding 3
Commercial name                          : Dolby Digital
Codec ID                                 : A_AC3
Duration                                 : 49 min 4 s
Bit rate mode                            : Constant
Bit rate                                 : 192 kb/s
Channel(s)                               : 2 channels
Channel layout                           : L R
Sampling rate                            : 48.0 kHz
Frame rate                               : 31.250 FPS (1536 SPF)
Compression mode                         : Lossy
Stream size                              : 67.4 MiB (3%)
Title                                    : Українська, телеканал Мега, одноголосе озвучення, AC-3, 2.0, 192 kb/s, 48.0 kHz
Language                                 : Ukrainian
Service kind                             : Complete Main
Default                                  : Yes
Forced                                   : No

Audio #2
ID                                       : 3
ID in the original source medium         : 189 (0xBD)128 (0x80)
Format                                   : AC-3
Format/Info                              : Audio Coding 3
Commercial name                          : Dolby Digital
Codec ID                                 : A_AC3
Duration                                 : 49 min 4 s
Bit rate mode                            : Constant
Bit rate                                 : 448 kb/s
Channel(s)                               : 6 channels
Channel layout                           : L R C LFE Ls Rs
Sampling rate                            : 48.0 kHz
Frame rate                               : 31.250 FPS (1536 SPF)
Compression mode                         : Lossy
Stream size                              : 157 MiB (7%)
Title                                    : English, original [DVD9], AC-3, surround 5.1, 448 kb/s, 48.0 kHz
Language                                 : English
Service kind                             : Complete Main
Default                                  : No
Forced                                   : No
Original source medium                   : DVD-Video

Audio #3
ID                                       : 4
Format                                   : AC-3
Format/Info                              : Audio Coding 3
Commercial name                          : Dolby Digital
Codec ID                                 : A_AC3
Duration                                 : 49 min 4 s
Bit rate mode                            : Constant
Bit rate                                 : 192 kb/s
Channel(s)                               : 2 channels
Channel layout                           : L R
Sampling rate                            : 48.0 kHz
Frame rate                               : 31.250 FPS (1536 SPF)
Compression mode                         : Lossy
Stream size                              : 67.4 MiB (3%)
Title                                    : English, original, AC-3, stereo 2.0, 192 kb/s, 48.0 kHz
Language                                 : English
Service kind                             : Complete Main
Default                                  : No
Forced                                   : No

Text #1
ID                                       : 5
Format                                   : UTF-8
Codec ID                                 : S_TEXT/UTF8
Codec ID/Info                            : UTF-8 Plain Text
Duration                                 : 28 min 8 s
Bit rate                                 : 6 b/s
Count of elements                        : 16
Stream size                              : 1.40 KiB (0%)
Title                                    : Українська, форсовані, любительський переклад, SRT, UTF-8
Language                                 : Ukrainian
Default                                  : Yes
Forced                                   : No

Text #2
ID                                       : 6
Format                                   : UTF-8
Codec ID                                 : S_TEXT/UTF8
Codec ID/Info                            : UTF-8 Plain Text
Duration                                 : 47 min 40 s
Bit rate                                 : 46 b/s
Count of elements                        : 373
Stream size                              : 16.4 KiB (0%)
Title                                    : English, original, Full, SRT, UTF-8
Language                                 : English
Default                                  : No
Forced                                   : No

Text #3
ID                                       : 7
ID in the original source medium         : 189 (0xBD)32 (0x20)
Format                                   : VobSub
Muxing mode                              : zlib
Codec ID                                 : S_VOBSUB
Codec ID/Info                            : Picture based subtitle format used on DVDs
Duration                                 : 47 min 41 s
Bit rate                                 : 3 315 b/s
Count of elements                        : 314
Stream size                              : 1.13 MiB (0%)
Title                                    : Dutch, translation [DVD9], Full, VobSub
Language                                 : Dutch
Default                                  : No
Forced                                   : No
Original source medium                   : DVD-Video

Menu
00:00:00.000                             : en:Chapter 01
00:11:37.680                             : en:Chapter 02
00:20:51.200                             : en:Chapter 03
00:29:10.240                             : en:Chapter 04
00:38:56.000                             : en:Chapter 05

Скріншоти











Подяки
пану Nahalist за сирий звук та опис до релізу

Джерело: &
Особиста оцінка: 10 - без зайвих вагань рекомендую всім!


Срібний реліз (на рейтинг впливає 50% завантаженого)
 Трекер:    Зареєстрований   

Завантажити / скачати торрент



відео для новачків



 Зареєстрований:   2021-03-11 01:21
 Розмір:   13.43 GB 
 Оцінка:   10/10 (Голосів: 4)
   
igor911 
Модератор відео


З нами з: 18.01.08
Востаннє: 11.04.21
Повідомлень: 15834

2021-03-11 10:25  
Bruce_Nolan 
Поважний учасник


З нами з: 17.06.14
Востаннє: 22.03.21
Повідомлень: 208

2021-03-14 01:09  
Велика дяка, що робите(викладаєте) подібне. Дуже класний док, особливо про Пустелі і Джунглі!!!
igor911 написано:

Кого цікавить - ось на нашому трекері є інші фільми з цього циклу:

Невідома Австралія (Wild Australasia) / Wild Down Under (2003)
Невідомий Китай / Wild China (2008)
Невідома Південна Америка / Wild South America (2000)

Ну якщо я не помиляюсь, то на Толоці є краща якість, а ніж ви вказали посилання, зараз не напишу, бо вже сплю на ходу.
igor911 написано:

Кого цікавить - ось на нашому трекері є інші фільми з цього циклу:

BBC: Таємниці Тихоокеанcького півдня / South Pacific (2009)

о!! А оце секундочку, я колись з EX UA це взяв собі, АЛЕ: 1 - там не було 2х серій(яких - не пам'ятаю, але точно знаю, що не було 2-х, воно десь валяється на Харді, треба ритися). " - В мене воно мало звук з МЕГА, там підписано було в описі "запис з МЕГА"- а ваше посилання бачу - звук з ІНТЕРа, як знайду, то можна в ту роздачу додати озвучку до 4х серій МЕГА каналу

Python_3.2 
Поважний учасник


З нами з: 28.12.12
Востаннє: 11.04.21
Повідомлень: 183

2021-03-14 19:10  
Bruce_Nolan
О, щодо BBC: Таємниці Тихоокеанcького півдня
Надішліть мені в приват, якщо знайдете Happy
Рано чи пізно зведу все до купи

Nahalist 
VIP


З нами з: 13.12.13
Востаннє: 09.04.21
Повідомлень: 350

2021-03-14 23:24  
Bruce_Nolan написано:
Велика дяка, що робите(викладаєте) подібне. Дуже класний док, особливо про Пустелі і Джунглі!!!

Стараємося! Так - Про Пустелі і Джунглі мені теж сподобалося в цій документалці, не поступається ні разу "Планеті Земля" Happy

Purdun 
Свій


З нами з: 05.09.13
Востаннє: 20.03.21
Повідомлень: 136

2021-03-20 22:00  
Клас, гарно знято, а головне, що велике щастя такі як ви - бо для тих, хто полюбляє подібне - тепер є що подивитися, а то суцільні художні викладають на Толоку, або якщо й документальне, то не про природу, а таке ото....
Ваш часовий пояс: GMT + 2 Години

Нова тема   Відповісти