Мегамозок / Megamind (2010) AVC Ukr/Eng | Sub 2xUkr/Eng

Нові коментарі

Нова тема   Відповісти
Автор Повідомлення
Anonymous 







2021-03-10 20:55  
Мегамозок / Megamind (2010) AVC Ukr/Eng | Sub 2xUkr/Eng

Мегамозок / Megamind (2010) AVC Ukr/Eng | Sub 2xUkr/Eng


Жанр: комедія, мультфільм, сімейний
Країна: США



Кінокомпанія: DreamWorks Animation, Pacific Data Images, Red Hour Films, Universal Pictures International
Режисер: Том МакГрат
Ролі озвучували: Вілл Феррелл, Бред Пітт, Тіна Фей, Джонна Хілл, Девід Кросс.

Сюжет:
Мегамозок - найгеніальніший і найбільший невдаха лиходій у світі. Ось уже багато років він намагається підкорити Метро-Сіті найрізноманітнішими способами. Але кожна така спроба закінчується провалом з вини супергероя на ім'я Метро-Мен. Але лиходій вбиває супергероя, і раптово Мегамозок позбавляється мети у житті. Суперлиходій без супергероя.
Єдиний вихід - створити нового супергероя, якого він називає Титаном. Але Титан вирішує, що бути лиходієм куди цікавіше. Ось тільки йому не хочеться правити світом, він бажає його знищити...

Тривалість: 01:35:34
Якість: AVC

Відео:
кодек:
розмір кадру: 1024x432
бітрейт: 1 804 кб/с

Аудіо # 1:
мова: українська
озвучення: професійний дубляж
кодек: AC-3 5.1
бітрейт: 448 кб/с
Інформація про дубляж
Фільм дубльовано студією «Le Doyen» у 2010 році.

Режисер дубляжу: Констянтин Лінартович
Перекладач і автор синхронного тексту: Федір Сидорук
Ролі озвучили: Ярослав Чорненький — Мегамозок, Андрій Твердак — Мачомен, Назар Задніпровський — Титан, Людмила Ардельян — Роксен Річі, Павло Скороходько — Космічна Мачуха, Констянтин Лінартович — Прислужник/Начальник
А також: Людмила Барбір, В'ячеслав Дудко, Анастасія Середа, Андрій Мостренко, Дмитро Лінартович, Дмитро Сова, Ганна Голосніченко, Ірина Нерпас, Катерина Буцька, Катерина Качан, Ольга Тимошенко, Роман Чорний, Сергій Солопай, Сергій Юрченко, Тетяна Піроженко, Валентин Музиченко.
Аудіо # 2:
мова: англійська
озвучення: оригінал
кодек: AC-3 5.1
бітрейт: 448 кб/с

Субтитри # 1: (Форсовані)
мова: українська
тип: програмні (м'які)
формат: *.srt

Субтитри # 2 (Повні):
мова: українська
тип: програмні (м'які)
формат: *.srt

Субтитри # 3 (Повні):
мова: українська
тип: програмні (м'які)
формат: *.srt

Субтитри # 4 (Повні):
мова: англійська
тип: програмні (м'які)
формат: *.srt

Субтитри # 5: (Повні, для людей з вадами слуху)
мова: англійська
тип: програмні (м'які)
формат: *.srt


Info
Код:
General
Unique ID                      : 25005744340093881710848498276025955559 (0x12CFEE61DA8743096117B8A8C006F4E7)
Complete name                  : D:\Megamind (2010) AVC [UKR_ENG] [Hurtom].
Format                         :
Format version                 : Version 4 / Version 2
File size                      : 1.81 GiB
Duration                       : 1 h 35 min
Overall bit rate               : 2 706 kb/s
Movie name                     : Мегамозок / Megamind (2010)
Encoded date                   : UTC 2021-03-10 17:40:41
Writing application            : v51.0.0 ('I Wish') 32-bit
Writing library                : libebml v1.4.0 + v1.6.2
Cover                          : Yes
Attachments                    : Cover.jpg

Video
ID                             : 1
Format                         : AVC
Format/Info                    : Advanced Video Codec
Format profile                 : [email protected]
Format settings, CABAC         : Yes
Format settings, RefFrames     : 9 frames
Codec ID                       : V_MPEG4/ISO/AVC
Duration                       : 1 h 35 min
Bit rate                       : 1 804 kb/s
Width                          : 1 024 pixels
Height                         : 432 pixels
Display aspect ratio           : 2.40:1
Original display aspect ratio  : 2.40:1
Frame rate mode                : Constant
Frame rate                     : 23.976 (24000/1001) FPS
Color space                    : YUV
Chroma subsampling             : 4:2:0
Bit depth                      : 8 bits
Scan type                      : Progressive
Bits/(Pixel*Frame)             : 0.170
Stream size                    : 1.20 GiB (67%)
Writing library                : core 128 r2216M 198a7ea
Encoding settings              : cabac=1 / ref=10 / deblock=1:-1:-1 / analyse=0x3:0x133 / me=umh / subme=11 / psy=1 / psy_rd=1.05:0.00 / mixed_ref=1 / me_range=48 / chroma_me=1 / trellis=2 / 8x8dct=1 / cqm=0 / deadzone=21,11 / fast_pskip=0 / chroma_qp_offset=-2 / threads=4 / lookahead_threads=1 / sliced_threads=0 / nr=0 / decimate=1 / interlaced=0 / bluray_compat=0 / constrained_intra=0 / bframes=11 / b_pyramid=1 / b_adapt=2 / b_bias=0 / direct=3 / weightb=1 / open_gop=0 / weightp=2 / keyint=240 / keyint_min=23 / scenecut=40 / intra_refresh=0 / rc_lookahead=200 / rc=2pass / mbtree=1 / bitrate=1804 / ratetol=1.0 / qcomp=0.70 / qpmin=0 / qpmax=65 / qpstep=4 / cplxblur=20.0 / qblur=0.5 / vbv_maxrate=20000 / vbv_bufsize=20000 / nal_hrd=none / ip_ratio=1.35 / aq=1:0.85
Language                       : English
Default                        : Yes
Forced                         : No

Audio #1
ID                             : 2
Format                         : AC-3
Format/Info                    : Audio Coding 3
Format settings, Endianness    : Big
Codec ID                       : A_AC3
Duration                       : 1 h 35 min
Bit rate mode                  : Constant
Bit rate                       : 448 kb/s
Channel(s)                     : 6 channels
Channel positions              : Front: L C R, Side: L R, LFE
Sampling rate                  : 48.0 kHz
Frame rate                     : 31.250 FPS (1536 SPF)
Bit depth                      : 16 bits
Compression mode               : Lossy
Stream size                    : 306 MiB (17%)
Title                          : Le Doyen Studio
Language                       : Ukrainian
Service kind                   : Complete Main
Default                        : Yes
Forced                         : Yes

Audio #2
ID                             : 3
Format                         : AC-3
Format/Info                    : Audio Coding 3
Format settings, Endianness    : Big
Codec ID                       : A_AC3
Duration                       : 1 h 35 min
Bit rate mode                  : Constant
Bit rate                       : 448 kb/s
Channel(s)                     : 6 channels
Channel positions              : Front: L C R, Side: L R, LFE
Sampling rate                  : 48.0 kHz
Frame rate                     : 31.250 FPS (1536 SPF)
Bit depth                      : 16 bits
Compression mode               : Lossy
Stream size                    : 306 MiB (17%)
Title                          : Original
Language                       : English
Service kind                   : Complete Main
Default                        : No
Forced                         : No

Text #1
ID                             : 4
Format                         : UTF-8
Codec ID                       : S_TEXT/UTF8
Codec ID/Info                  : UTF-8 Plain Text
Duration                       : 1 h 10 min
Bit rate                       : 1 b/s
Count of elements              : 21
Stream size                    : 859 Bytes (0%)
Title                          : Forced
Language                       : Ukrainian
Default                        : Yes
Forced                         : Yes

Text #2
ID                             : 5
Format                         : UTF-8
Codec ID                       : S_TEXT/UTF8
Codec ID/Info                  : UTF-8 Plain Text
Duration                       : 1 h 34 min
Bit rate                       : 99 b/s
Count of elements              : 1230
Stream size                    : 69.3 KiB (0%)
Title                          : Full from Netflix
Language                       : Ukrainian
Default                        : No
Forced                         : No

Text #3
ID                             : 6
Format                         : UTF-8
Codec ID                       : S_TEXT/UTF8
Codec ID/Info                  : UTF-8 Plain Text
Duration                       : 1 h 34 min
Bit rate                       : 106 b/s
Count of elements              : 1288
Stream size                    : 74.0 KiB (0%)
Title                          : Full from BD
Language                       : Ukrainian
Default                        : No
Forced                         : No

Text #4
ID                             : 7
Format                         : UTF-8
Codec ID                       : S_TEXT/UTF8
Codec ID/Info                  : UTF-8 Plain Text
Duration                       : 1 h 34 min
Bit rate                       : 66 b/s
Count of elements              : 1256
Stream size                    : 45.9 KiB (0%)
Title                          : Full
Language                       : English
Default                        : No
Forced                         : No

Text #5
ID                             : 8
Format                         : UTF-8
Codec ID                       : S_TEXT/UTF8
Codec ID/Info                  : UTF-8 Plain Text
Duration                       : 1 h 34 min
Bit rate                       : 77 b/s
Count of elements              : 1471
Stream size                    : 54.0 KiB (0%)
Title                          : Full (SDH)
Language                       : English
Default                        : No
Forced                         : No

Menu
00:00:00.000                   : en:Chapter 1
00:06:21.672                   : en:Chapter 2
00:10:04.437                   : en:Chapter 3
00:15:59.291                   : en:Chapter 4
00:22:51.536                   : en:Chapter 5
00:28:02.555                   : en:Chapter 6
00:32:12.138                   : en:Chapter 7
00:39:03.758                   : en:Chapter 8
00:45:13.752                   : en:Chapter 9
00:52:25.058                   : en:Chapter 10
00:56:38.019                   : en:Chapter 11
01:04:31.576                   : en:Chapter 12
01:10:15.794                   : en:Chapter 13
01:17:45.285                   : en:Chapter 14
01:25:56.734                   : en:Chapter 15
Скріншоти

Джерело: &
Особиста оцінка: 10 - без зайвих вагань рекомендую всім!


 Трекер:    Зареєстрований   

Завантажити / скачати мультфільм українською



відео для новачків



 Зареєстрований:   2021-03-10 20:55
 Розмір:   1.81 GB 
 Оцінка мультфільму:   10/10 (Голосів: 5)
   
Інші релізи
   Мегамозок / Megamind (2010) 1080p H.265 Ukr/Eng | Sub 2xUkr/Eng -Star-Lord-  13 / 0   4.11 GB   2021-03-10 18:54 
   Мегамозок / Megamind (2010) 1080p-mini | Sub Ukr/Eng Zeus62  0 / 0   4.34 GB   2011-04-21 12:48 
   Мегамозок / Megamind (2010) 720p Ukr/Eng SuperContik  6 / 0   4.13 GB   2011-04-18 22:44 
   Мегамозок / Megamind (2010) 1080p Ukr/Eng SuperContik  8 / 0   7.44 GB   2011-04-17 23:11 
   Мегамозок / Megamind (2010) Ukr/Eng antik_2008  9 / 0   1.98 GB   2011-04-16 15:15 
   Мегамозок / Megamind (2010) Anonymous  11 / 0   1.47 GB   2011-04-16 12:31 
Altron320 
Поважний учасник


З нами з: 08.05.20
Востаннє: 22.04.21
Повідомлень: 221

2021-03-11 18:14  
Перенесіть в мультфільми з озвученням.
roalad 
VIP


З нами з: 22.06.12
Востаннє: 22.04.21
Повідомлень: 442

2021-03-13 21:16  
Нарешті забабахали в avc!!!! в avi форматі якість ну просто ужас
Дякую релізеру!

Ваш часовий пояс: GMT + 2 Години

Нова тема   Відповісти