Біллі Айліш: Трохи розмитий світ / Біллі Айліш: Світ якийсь розмитий / Billie Eilish: The World's a Little Blurry (2021) AVC 2xUkr/Eng | Sub Ukr/Eng

Нові коментарі

Нова тема   Відповісти
Останній раз роздавалося kinaxem (2021-04-23)
Автор Повідомлення
Anonymous 







2021-03-09 17:59  
Біллі Айліш: Трохи розмитий світ / Біллі Айліш: Світ якийсь розмитий / Billie Eilish: The World's a Little Blurry (2021) AVC 2xUkr/Eng | Sub Ukr/Eng


Біллі Айліш: Трохи розмитий світ / Біллі Айліш: Світ якийсь розмитий / Billie Eilish: The World's a Little Blurry (2021) AVC 2xUkr/Eng | Sub Ukr/Eng


Альтернативний постер


Жанр: документальний, біографічний, музичний
Країна: США



Телеканал / кіностудія: Apple TV+
Режисер: Р.Дж. Катлер
Актори: Біллі Айліш

Сюжет:
Документальний фільм про життя співачки Біллі Айліш на гастролях і вдома під час запису дебютного альбому.


Тривалість: 02:20:36
Якість: AVC
Відео:
кодек:
розмір кадру: 720x400
бітрейт: 1100 кб/с

Аудіо # 1:
мова: українська
озвучення: професійне, багатоголосе закадрове | (DniproFilm) на замовлення HDRezka Studio
кодек: 5.1
бітрейт: 384 кб/с

Аудіо # 2:
мова: українська
озвучення: любительське, одноголосе закадрове | В одне рило
кодек: 2.0
бітрейт: 192 кб/с

Аудіо # 3:
мова: англійська
озвучення: оригінал
кодек: 5.1
бітрейт: 448 кб/с

Субтитри # 1 : (Forced)
мова: українська
тип: програмні (м'які)
формат: *.srt

Субтитри # 2 : (Full)
мова: українська
тип: програмні (м'які)
формат: *.srt
переклад: Анастасія Жищинська

Субтитри # 3 : (Forced)
мова: англійська
тип: програмні (м'які)
формат: *.srt

Субтитри # 4: (Full)
мова: англійська
тип: програмні (м'які)
формат: *.srt
Info

Код:
General
Unique ID                      : 101885952009324600499816384534630260146 (0x4CA685454D5580FEED31E23DA5AE5DB2)
Complete name                  : D:\Billie Eilish- The World's a Little Blurry (2021) AVC [2xUKR_ENG] [Hurtom].
Format                         :
Format version                 : Version 4 / Version 2
File size                      : 2.09 GiB
Duration                       : 2 h 20 min
Overall bit rate               : 2 127 kb/s
Movie name                     : Біллі Айліш: Трохи розмитий світ / Біллі Айліш: Світ якийсь розмитий / Billie Eilish: The World's a Little Blurry (2021)
Encoded date                   : UTC 2021-03-09 14:30:53
Writing application            : v51.0.0 ('I Wish') 32-bit
Writing library                : libebml v1.4.0 + v1.6.2
Cover                          : Yes
Attachments                    : cover.jpg

Video
ID                             : 1
Format                         : AVC
Format/Info                    : Advanced Video Codec
Format profile                 : [email protected]
Format settings, CABAC         : Yes
Format settings, RefFrames     : 5 frames
Codec ID                       : V_MPEG4/ISO/AVC
Duration                       : 2 h 20 min
Bit rate                       : 1 100 kb/s
Width                          : 720 pixels
Height                         : 400 pixels
Display aspect ratio           : 16:9
Frame rate mode                : Constant
Frame rate                     : 23.976 (24000/1001) FPS
Color space                    : YUV
Chroma subsampling             : 4:2:0
Bit depth                      : 8 bits
Scan type                      : Progressive
Bits/(Pixel*Frame)             : 0.159
Stream size                    : 1.08 GiB (52%)
Writing library                : core 152 r2851M ba24899
Encoding settings              : cabac=1 / ref=5 / deblock=1:-1:-1 / analyse=0x3:0x113 / me=umh / subme=9 / psy=1 / psy_rd=1.00:0.15 / mixed_ref=1 / me_range=16 / chroma_me=1 / trellis=2 / 8x8dct=1 / cqm=0 / deadzone=21,11 / fast_pskip=1 / chroma_qp_offset=-3 / threads=16 / lookahead_threads=1 / sliced_threads=0 / nr=0 / decimate=1 / interlaced=0 / bluray_compat=0 / constrained_intra=0 / bframes=3 / b_pyramid=2 / b_adapt=2 / b_bias=0 / direct=3 / weightb=1 / open_gop=0 / weightp=2 / keyint=250 / keyint_min=23 / scenecut=40 / intra_refresh=0 / rc_lookahead=50 / rc=2pass / mbtree=1 / bitrate=1100 / ratetol=1.0 / qcomp=0.60 / qpmin=0 / qpmax=69 / qpstep=4 / cplxblur=20.0 / qblur=0.5 / ip_ratio=1.40 / aq=1:1.00
Language                       : English
Default                        : Yes
Forced                         : No

Audio #1
ID                             : 2
Format                         : AC-3
Format/Info                    : Audio Coding 3
Format settings, Endianness    : Big
Codec ID                       : A_AC3
Duration                       : 2 h 20 min
Bit rate mode                  : Constant
Bit rate                       : 384 kb/s
Channel(s)                     : 6 channels
Channel positions              : Front: L C R, Side: L R, LFE
Sampling rate                  : 48.0 kHz
Frame rate                     : 31.250 FPS (1536 SPF)
Bit depth                      : 16 bits
Compression mode               : Lossy
Delay relative to video        : -43 ms
Stream size                    : 386 MiB (18%)
Title                          : HDRezka Studio(DniproFilm)
Language                       : Ukrainian
Service kind                   : Complete Main
Default                        : Yes
Forced                         : Yes

Audio #2
ID                             : 3
Format                         : AC-3
Format/Info                    : Audio Coding 3
Format settings, Endianness    : Big
Codec ID                       : A_AC3
Duration                       : 2 h 20 min
Bit rate mode                  : Constant
Bit rate                       : 192 kb/s
Channel(s)                     : 2 channels
Channel positions              : Front: L R
Sampling rate                  : 48.0 kHz
Frame rate                     : 31.250 FPS (1536 SPF)
Bit depth                      : 16 bits
Compression mode               : Lossy
Delay relative to video        : -43 ms
Stream size                    : 193 MiB (9%)
Title                          : В одне рило
Language                       : Ukrainian
Service kind                   : Complete Main
Default                        : No
Forced                         : No

Audio #3
ID                             : 4
Format                         : AC-3
Format/Info                    : Audio Coding 3
Format settings, Endianness    : Big
Codec ID                       : A_AC3
Duration                       : 2 h 20 min
Bit rate mode                  : Constant
Bit rate                       : 448 kb/s
Channel(s)                     : 6 channels
Channel positions              : Front: L C R, Side: L R, LFE
Sampling rate                  : 48.0 kHz
Frame rate                     : 31.250 FPS (1536 SPF)
Bit depth                      : 16 bits
Compression mode               : Lossy
Delay relative to video        : -43 ms
Stream size                    : 451 MiB (21%)
Title                          : Original
Service kind                   : Complete Main
Default                        : No
Forced                         : No

Text #1
ID                             : 5
Format                         : UTF-8
Codec ID                       : S_TEXT/UTF8
Codec ID/Info                  : UTF-8 Plain Text
Duration                       : 2 h 6 min
Bit rate                       : 0 b/s
Count of elements              : 20
Stream size                    : 754 Bytes (0%)
Title                          : Forced
Language                       : Ukrainian
Default                        : Yes
Forced                         : Yes

Text #2
ID                             : 6
Format                         : UTF-8
Codec ID                       : S_TEXT/UTF8
Codec ID/Info                  : UTF-8 Plain Text
Duration                       : 2 h 20 min
Bit rate                       : 100 b/s
Count of elements              : 2181
Stream size                    : 103 KiB (0%)
Title                          : Full
Language                       : Ukrainian
Default                        : No
Forced                         : No

Text #3
ID                             : 7
Format                         : UTF-8
Codec ID                       : S_TEXT/UTF8
Codec ID/Info                  : UTF-8 Plain Text
Duration                       : 2 h 6 min
Bit rate                       : 3 b/s
Count of elements              : 118
Stream size                    : 3.63 KiB (0%)
Title                          : Forced
Language                       : English
Default                        : No
Forced                         : No

Text #4
ID                             : 8
Format                         : UTF-8
Codec ID                       : S_TEXT/UTF8
Codec ID/Info                  : UTF-8 Plain Text
Duration                       : 2 h 19 min
Bit rate                       : 72 b/s
Count of elements              : 2141
Stream size                    : 74.0 KiB (0%)
Title                          : Full
Language                       : English
Default                        : No
Forced                         : No

Скріншоти
Джерело: &
Особиста оцінка: 0 - не дивився



Авторський реліз (завантажувати можна без реєстрації)
 Трекер:    Зареєстрований   

Завантажити / скачати торрент



відео для новачків



 Зареєстрований:   2021-03-09 17:59
 Розмір:   2.09 GB 
 Оцінка:   5/10 (Голосів: 4)
   
Ваш часовий пояс: GMT + 2 Години

Нова тема   Відповісти