Біллі Айліш: Трохи розмитий світ / Біллі Айліш: Світ якийсь розмитий / Billie Eilish: The World's a Little Blurry (2021) 2xUkr/Eng | Sub Ukr/Eng

Нові коментарі

Нова тема   Відповісти
Останній раз роздавалося antik_2008 (2021-04-19)
Автор Повідомлення
Anonymous 







2021-03-08 20:03  
Біллі Айліш: Трохи розмитий світ / Біллі Айліш: Світ якийсь розмитий / Billie Eilish: The World's a Little Blurry (2021) 2xUkr/Eng | Sub Ukr/Eng


Біллі Айліш: Трохи розмитий світ / Біллі Айліш: Світ якийсь розмитий / Billie Eilish: The World's a Little Blurry (2021) 2xUkr/Eng | Sub Ukr/Eng


Альтернативний постер


Жанр: документальний, біографічний, музичний
Країна: США



Телеканал / кіностудія: Apple TV+
Режисер: Р.Дж. Катлер
Актори: Біллі Айліш

Сюжет:
Документальний фільм про життя співачки Біллі Айліш на гастролях і вдома під час запису дебютного альбому.


Тривалість: 02:20:36
Якість:
Відео:
кодек:
розмір кадру: 720x400
бітрейт: 1528 кб/с

Аудіо # :
мова: українська
переклад: багатоголосий закадровий | (DniproFilm) на замовлення HDRezka Studio
кодек: 5.1
бітрейт: 384 кб/с

Аудіо # 2:
мова: українська
переклад: одноголосий закадровий | В одне рило
кодек: 2.0
бітрейт: 192 кб/с

Аудіо # 3:
мова: англійська
переклад: оригінал
кодек: 5.1
бітрейт: 448 кб/с

Субтитри # 1 : (Forced)
мова: українська
тип: програмні (м'які)
формат: *.srt

Субтитри # 2 : (Full)
мова: українська
тип: програмні (м'які)
формат: *.srt
переклад: Анастасія Жищинська

Субтитри # 3 : (Forced)
мова: англійська
тип: програмні (м'які)
формат: *.srt

Субтитри # 4: (Full)
мова: англійська
тип: програмні (м'які)
формат: *.srt
Info
Код:
General
Complete name                            : Billie Eilish The World's a Little Blurry (2021) [2xUkr_Eng] [Hurtom]\Billie Eilish The World's a Little Blurry (2021) [2xUkr_Eng] [Hurtom].avi
Format                                   : AVI
Format/Info                              : Audio Video Interleave
Format profile                           : OpenDML
File size                                : 2.51 GiB
Duration                                 : 2 h 20 min
Overall bit rate                         : 2 559 kb/s
Movie name                               : Billie Eilish: The World's a Little Blurry (2021)
Writing application                      : Lavf58.20.100

Video
ID                                       : 0
Format                                   : MPEG-4 Visual
Format profile                           : Advanced [email protected]
Format settings                          : BVOP1
Format settings, BVOP                    : 1
Format settings, QPel                    : No
Format settings, GMC                     : No warppoints
Format settings, Matrix                  : Default (H.263)
Codec ID                                 :
Codec ID/Hint                            :
Duration                                 : 2 h 20 min
Bit rate                                 : 1 514 kb/s
Width                                    : 720 pixels
Height                                   : 400 pixels
Display aspect ratio                     : 16:9
Frame rate                               : 23.976 (24000/1001) FPS
Color space                              : YUV
Chroma subsampling                       : 4:2:0
Bit depth                                : 8 bits
Scan type                                : Progressive
Compression mode                         : Lossy
Bits/(Pixel*Frame)                       : 0.219
Stream size                              : 1.49 GiB (59%)
Writing library                          : 67

Audio #1
ID                                       : 1
Format                                   : AC-3
Format/Info                              : Audio Coding 3
Commercial name                          : Dolby Digital
Codec ID                                 : 2000
Duration                                 : 2 h 20 min
Bit rate mode                            : Constant
Bit rate                                 : 384 kb/s
Channel(s)                               : 6 channels
Channel layout                           : L R C LFE Ls Rs
Sampling rate                            : 48.0 kHz
Frame rate                               : 31.250 FPS (1536 SPF)
Bit depth                                : 16 bits
Compression mode                         : Lossy
Stream size                              : 386 MiB (15%)
Alignment                                : Aligned on interleaves
Interleave, duration                     : 32  ms (0.77 video frame)
Title                                    : 5.1 | 384 | MVO HDRezka Studio
Service kind                             : Complete Main

Audio #2
ID                                       : 2
Format                                   : AC-3
Format/Info                              : Audio Coding 3
Commercial name                          : Dolby Digital
Codec ID                                 : 2000
Duration                                 : 2 h 20 min
Bit rate mode                            : Constant
Bit rate                                 : 192 kb/s
Channel(s)                               : 2 channels
Channel layout                           : L R
Sampling rate                            : 48.0 kHz
Frame rate                               : 31.250 FPS (1536 SPF)
Bit depth                                : 16 bits
Compression mode                         : Lossy
Stream size                              : 193 MiB (8%)
Alignment                                : Aligned on interleaves
Interleave, duration                     : 32  ms (0.77 video frame)
Title                                    : 2.0 | 192 | Р’ РѕРґРЅРµ рило
Service kind                             : Complete Main

Audio #3
ID                                       : 3
Format                                   : AC-3
Format/Info                              : Audio Coding 3
Commercial name                          : Dolby Digital
Codec ID                                 : 2000
Duration                                 : 2 h 20 min
Bit rate mode                            : Constant
Bit rate                                 : 448 kb/s
Channel(s)                               : 6 channels
Channel layout                           : L R C LFE Ls Rs
Sampling rate                            : 48.0 kHz
Frame rate                               : 31.250 FPS (1536 SPF)
Bit depth                                : 16 bits
Compression mode                         : Lossy
Stream size                              : 451 MiB (18%)
Alignment                                : Aligned on interleaves
Interleave, duration                     : 32  ms (0.77 video frame)
Title                                    : 5.1 | 448 | Original
Service kind                             : Complete Main
Скріншоти


Джерело: &
Особиста оцінка: 0 - не дивився



Авторський реліз (завантажувати можна без реєстрації)
 Трекер:    Зареєстрований   

Завантажити / скачати торрент



відео для новачків



 Зареєстрований:   2021-03-08 20:03
 Розмір:   2.51 GB 
 Оцінка:   6.7/10 (Голосів: 3)
   
NikHome 
Новенький


З нами з: 05.01.21
Востаннє: 19.04.21
Повідомлень: 17

2021-03-08 21:17  
Пішов шукати - що таке оце "Біллі Айліш"?

знайшов прикольне інтерв'ю:
Певица Билли Айлиш/Billie Eilish. Вечерний Ургант. 09.09.2019
https://www.youtube.com/watch?v=I3QbJlDpmZw

Дякую - буду знати. По інтерв'ю мала сподобалась. Але ж можна було в опису хоча б пару слов кинути - що таке "Біллі Айліш"...

Anonymous 







2021-03-08 21:27  
NikHome
Цитата:
Документальний фільм про життя співачки Біллі Айліш на гастролях і вдома під час запису дебютного альбому.


Цитата:
Історія дорослішання виконавиці і авторки пісень, її історія підкорення олімпу і набуття статусу світової суперзірки в проекті всесвітньо відомого документаліста Ар Джея Катлера. Документальний фільм являє собою подорож в життя цієї незвичайного 17-річного підлітка. Біллі Айлиш в дорозі, на сцені і вдома зі своєю сім'єю, під час створення, запису та випуску свого дебютного альбому «When We All Fall Asleep, Where Do We Go?».

Ваш часовий пояс: GMT + 2 Години

Нова тема   Відповісти