Заклинання / Spell (2020) AVC Eng | Sub Ukr/Eng

Нові коментарі

Нова тема   Відповісти
Автор Повідомлення
Anonymous 







2021-03-03 20:39  
Заклинання / Spell (2020) AVC Eng | Sub Ukr/Eng

Заклинання / Spell (2020) AVC Eng | Sub Ukr/Eng

Жанр: жахи, трилер
Країна: США



Кінокомпанія: LINK Entertainment, MC8 Entertainment, Paramount Pictures
Режисер: Марк Тондерай / Mark Tonderai
Актори: Омарі Хардвік / Omari Hardwick, Лоретта Дівайн / Loretta Devine, Лоррейн Барроуз / Lorraine Burroughs, Джон Бізлі / John Beasley, Тумішо Маша / Tumisho Masha, Пітер Батлер / Peter Butler та інші

Сюжет:
Дорогою на похорон батька у сільській місцевості регіону Аппалачі через сильну бурю Маркіз (Омарі Гардвік) втрачає контроль на літаком, де знаходиться його сім'я. Поранений, він приходить до тями на горищі пані Елоїзи (Лоретта Дівайн). Вона стверджує, що може повернути йому здоров'я за допомогою Буґіті, фігурки гуду, якого вона зробила з його плоті та крові. Не маючи змогу покликати на допомогу, Маркіз намагається перехитрити жінку й втекти від її чорної магії, щоб врятувати свою сім'ю від зловісного ритуалу, поки не піднявся кривавий місяць.
Офіційний трейлер:

Рейтинг MPAA: R - особам до 17 років обов'язкова присутність батьків або дорослого опікуна
Вікова категорія: 16+
Тривалість: 01:31:25
Якість: AVC
Відео:
кодек:
розмір кадру: 720х302
бітрейт: 676 кб/с

Аудіо:
мова: англійська
переклад: оригінал
кодек: 2.0
бітрейт: 192 кб/с

Субтитри # 1:
мова: українська
тип: програмні (м'які)
формат: *.srt
переклад: офіційний, Олена Цехмейструк

Субтитри # 2-3:
мова: англійська (повні, SDH)
тип: програмні (м'які)
формат: *.srt

Збережено оригінальні розділи
Info
Код:
General
Unique ID                   : 339394809111098674189099100096589508826 (0xFF5510057BAC7FDC3C121ED27680B0DA)
Complete name               : Spell (2020) [Eng sub.Ukr,Eng] AVC [Hurtom].
Format                      :
Format version              : Version 4
File size                   : 570 MiB
Duration                    : 1 h 31 min
Overall bit rate            : 871 kb/s
Movie name                  : Заклинання / Spell (2020) [Eng sub.Ukr,Eng] AVC [Hurtom]
Encoded date                : UTC 2021-03-03 22:06:44
Writing application         : v54.0.0 ('F Maj Pixie') 64-bit
Writing library             : libebml v1.4.2 + v1.6.3
Cover                       : Yes
Attachments                 : cover.jpg

Video
ID                          : 1
Format                      : AVC
Format/Info                 : Advanced Video Codec
Format profile              : [email protected]
Format settings             : CABAC / 5 Ref Frames
Format settings, CABAC      : Yes
Format settings, Reference  : 5 frames
Codec ID                    : V_MPEG4/ISO/AVC
Duration                    : 1 h 31 min
Bit rate                    : 676 kb/s
Width                       : 720 pixels
Height                      : 302 pixels
Display aspect ratio        : 2.40:1
Frame rate mode             : Constant
Frame rate                  : 23.976 (24000/1001) FPS
Color space                 : YUV
Chroma subsampling          : 4:2:0
Bit depth                   : 8 bits
Scan type                   : Progressive
Bits/(Pixel*Frame)          : 0.130
Stream size                 : 442 MiB (78%)
Title                       : Заклинання / Spell (2020) AVC [VETO]
Writing library             : core 161 r3033 0d754ec
Encoding settings           : cabac=1 / ref=5 / deblock=1:-2:-2 / analyse=0x3:0x113 / me=hex / subme=8 / psy=1 / psy_rd=1.00:0.00 / mixed_ref=1 / me_range=16 / chroma_me=1 / trellis=2 / 8x8dct=1 / cqm=0 / deadzone=21,11 / fast_pskip=1 / chroma_qp_offset=-2 / threads=24 / lookahead_threads=2 / sliced_threads=0 / nr=0 / decimate=1 / interlaced=0 / bluray_compat=0 / constrained_intra=0 / bframes=3 / b_pyramid=2 / b_adapt=1 / b_bias=0 / direct=3 / weightb=1 / open_gop=0 / weightp=2 / keyint=240 / keyint_min=24 / scenecut=40 / intra_refresh=0 / rc_lookahead=50 / rc=crf / mbtree=1 / crf=19.0 / qcomp=0.60 / qpmin=0 / qpmax=69 / qpstep=4 / ip_ratio=1.40 / aq=1:0.70
Language                    : English
Default                     : Yes
Forced                      : No
Color range                 : Limited
Matrix coefficients         : BT.709

Audio
ID                          : 2
Format                      : Main
Format/Info                 : Advanced Audio Codec
Codec ID                    : A_AAC-1
Duration                    : 1 h 31 min
Bit rate                    : 192 kb/s
Channel(s)                  : 2 channels
Channel layout              : L R
Sampling rate               : 48.0 kHz
Frame rate                  : 46.875 FPS (1024 SPF)
Compression mode            : Lossy
Stream size                 : 126 MiB (22%)
Language                    : English
Default                     : Yes
Forced                      : No

Text #1
ID                          : 3
Format                      : UTF-8
Codec ID                    : S_TEXT/UTF8
Codec ID/Info               : UTF-8 Plain Text
Duration                    : 1 h 30 min
Bit rate                    : 56 b/s
Count of elements           : 758
Stream size                 : 37.7 KiB (0%)
Title                       : Ukr Full [Official]
Language                    : Ukrainian
Default                     : Yes
Forced                      : Yes

Text #2
ID                          : 4
Format                      : UTF-8
Codec ID                    : S_TEXT/UTF8
Codec ID/Info               : UTF-8 Plain Text
Duration                    : 1 h 23 min
Bit rate                    : 42 b/s
Count of elements           : 751
Stream size                 : 25.8 KiB (0%)
Title                       : Eng Full
Language                    : English
Default                     : No
Forced                      : No

Text #3
ID                          : 5
Format                      : UTF-8
Codec ID                    : S_TEXT/UTF8
Codec ID/Info               : UTF-8 Plain Text
Duration                    : 1 h 26 min
Bit rate                    : 49 b/s
Count of elements           : 1015
Stream size                 : 31.6 KiB (0%)
Title                       : Eng SDH
Language                    : English
Default                     : No
Forced                      : No

Menu
00:00:00.000                : en:Chapter 01
00:06:27.095                : en:Chapter 02
00:16:16.851                : en:Chapter 03
00:25:30.779                : en:Chapter 04
00:33:16.870                : en:Chapter 05
00:41:28.778                : en:Chapter 06
00:49:07.403                : en:Chapter 07
00:58:32.551                : en:Chapter 08
01:05:45.984                : en:Chapter 09
01:11:00.214                : en:Chapter 10
01:16:46.811                : en:Chapter 11
01:24:28.730                : en:Chapter 12
Скріншоти:


Джерело: &
Подяка за надані субтитри п.subTrader (subscene)

У випадку появи українського озвучення реліз буде оновлено.


 Трекер:    Зареєстрований   

Завантажити / скачати фільм українською



відео для новачків



 Зареєстрований:   2021-03-04 02:52
 Розмір:   570 MB 
 Оцінка фільму:   10/10 (Голосів: 2)
 ЗАЛИШАЙТЕСЬ ЯКОМОГА ДОВШЕ НА РОЗДАЧІ! ЗАВАНТАЖИВ САМ - ДАЙ ЗАВАНТАЖИТИ ІНШИМ!
   
Інші релізи
   Заклинання / Spell (2020) 1080p Eng | Sub Ukr/Eng staf777  1 / 0   10.9 GB   2021-03-04 18:34 
   Заклинання / Spell (2020) 720p Eng | Sub Ukr/Eng igor911  1 / 0   3.63 GB   2021-03-03 20:41 
bot 
робот


З нами з: 30.09.07
Востаннє: 26.05.05
Повідомлень: 27938

2021-03-04 02:52  
Тему перенесено з Анонси релізів до форуму Фільми


igor911

staf777 
Відео Гуртом - підтримка та поширення
Відео Гуртом - підтримка та поширення


З нами з: 16.11.16
Востаннє: 19.04.21
Повідомлень: 5538

2021-03-04 12:06  
До речі непоганий фільм ...
tpolit 
Попереджень: 1
Попереджень: 1 


З нами з: 10.01.15
Востаннє: 19.04.21
Повідомлень: 711

2021-03-05 02:28  
Зверніть увагу, цей чудовий фільм ніхто не буде критикувати за "негрів" в сценарії. Бо він колоритно знятий саме про їх унікальні фішки, а не про білих. Вуду - це ж реальна бімба! Це цікаво і не можна порівняти, наприклад, з темношкірим Пітером Пеном чи темношкірою королевою Англії. Коли темношкірі знімають про своє - це цікаво, автентично, навіть корисно для загального розвитку. Але коли вони з реальних білих історичних і не дуже персон ліплять темношкірих - це дебілізм найвищої стадії, клінічний випадок і расизм по відношенню до білих.
staf777 
Відео Гуртом - підтримка та поширення
Відео Гуртом - підтримка та поширення


З нами з: 16.11.16
Востаннє: 19.04.21
Повідомлень: 5538

2021-03-05 14:57  
Цитата:
не буде критикувати за "негрів" в сценарії.

як на мене без різниці хто в сценарії хоч зелені аби не москалі ... а фільм дійсно бомба

Ваш часовий пояс: GMT + 2 Години

Нова тема   Відповісти