Відважна Ліфі / Madangeul Naon Amtak (2011) AVC 2xUkr/Kor

Нові коментарі

Нова тема   Відповісти
Автор Повідомлення
Anonymous 







2021-03-03 15:56  
Відважна Ліфі / Madangeul Naon Amtak (2011) AVC 2xUkr/Kor

Відважна Ліфі / Madangeul Naon Amtak (2011) AVC 2xUkr/Kor


Фільм виборов премію Asia Pacific Screen Award за кращий анімаційний фільм.


Жанр: анімація, комедія, драма, сімейний
Країна: Південна Корея



Кінокомпанія: Myung Films, Lotte Entertainment, Odoltogi
Режисер: Сонюн О / Seong-yun Oh / 오성윤
Актори: Сорі Мун / So-ri Moon / 문소리, Синхо Ю / Seung Ho Yoo / 유승호, Мінсік Чоі / Min-sik Choi / 최민식, Чолмін Парк / Cheol-min Park / 박철민, Санюн Кім / Sang-hyun Kim / 김상현, Чон Суккйон / Jeon Sook-Kyeong / 전숙경

Сюжет:
Невгамовна курочка Ліфі залишає затишне сите життя на птахофабриці та вирушає до лісу. Там вона рятує маленьке каченя від ласки та бере його під своє крило. Неймовірно веселі й небезпечні пригоди чекають на цю дивну парочку.


Тривалість: 01:32:18
Якість: AVC
Відео:
кодек:
розмір кадру: 1024x552
бітрейт: 1 882 кб/с

Аудіо # 1:
мова: українська
озвучення: професійне, багатоголосе закадрове
кодек: 2.0 [stereo]
бітрейт: 192 кб/с
примітка: запис з DVB-С (18 kHz)

Аудіо # 2:
мова: українська
озвучення: професійне, багатоголосе закадрове
кодек: 2.0
бітрейт: 192 кб/с
примітка: запис з DVB-T2 (18 kHz)

Аудіо # 3:
мова: корейська
переклад: оригінал
кодек: 5.1
бітрейт: 448 кб/с

Субтитри (форсовані - написи):
мова: українська
тип: програмні (м'які)
формат: *.srt
Info
General
Unique ID : 73579590734687633052925505046310691797 (0x375AE9E8D817FEF495510E12DC1E23D5)
Complete name : D:\Madangeul Naon Amtak (2011) AVC [2xUKR_KOR] [Hurtom].
Format :
Format version : Version 4 / Version 2
File size : 1.75 GiB
Duration : 1 h 32 min
Overall bit rate : 2 717 kb/s
Movie name : Відважна Ліфі / Madangeul Naon Amtak (2011)
Encoded date : UTC 2021-03-03 10:40:36
Writing application : v51.0.0 ('I Wish') 32-bit
Writing library : libebml v1.4.0 + v1.6.2
Cover : Yes
Attachments : cover.jpg

Video
ID : 1
Format : AVC
Format/Info : Advanced Video Codec
Format profile : [email protected]
Format settings, CABAC : No
Format settings, RefFrames : 9 frames
Codec ID : V_MPEG4/ISO/AVC
Duration : 1 h 32 min
Bit rate : 1 882 kb/s
Width : 1 024 pixels
Height : 552 pixels
Display aspect ratio : 1.85:1
Frame rate mode : Constant
Frame rate : 24.000 FPS
Color space : YUV
Chroma subsampling : 4:2:0
Bit depth : 8 bits
Scan type : Progressive
Bits/(Pixel*Frame) : 0.139
Stream size : 1.21 GiB (69%)
Writing library : core 116 r2019M 9cc407d
Encoding settings : cabac=0 / ref=10 / deblock=1:-2:-2 / analyse=0x3:0x133 / me=umh / subme=9 / psy=1 / psy_rd=1.00:0.00 / mixed_ref=1 / me_range=42 / chroma_me=1 / trellis=1 / 8x8dct=1 / cqm=0 / deadzone=21,13 / fast_pskip=0 / chroma_qp_offset=-2 / threads=8 / sliced_threads=0 / nr=0 / decimate=1 / interlaced=0 / bluray_compat=0 / constrained_intra=0 / bframes=8 / b_pyramid=1 / b_adapt=2 / b_bias=0 / direct=3 / weightb=1 / open_gop=0 / weightp=2 / keyint=240 / keyint_min=24 / scenecut=40 / intra_refresh=0 / rc_lookahead=100 / rc=2pass / mbtree=1 / bitrate=1882 / ratetol=1.0 / qcomp=0.60 / qpmin=10 / qpmax=51 / qpstep=4 / cplxblur=20.0 / qblur=0.5 / ip_ratio=1.37 / aq=1:1.20
Language : Korean
Default : Yes
Forced : No

Audio #1
ID : 2
Format : AC-3
Format/Info : Audio Coding 3
Format settings, Endianness : Big
Codec ID : A_AC3
Duration : 1 h 32 min
Bit rate mode : Constant
Bit rate : 192 kb/s
Channel(s) : 2 channels
Channel positions : Front: L R
Sampling rate : 48.0 kHz
Frame rate : 31.250 FPS (1536 SPF)
Bit depth : 16 bits
Compression mode : Lossy
Stream size : 127 MiB (7%)
Title : Cine+ Kids HD
Language : Ukrainian
Service kind : Complete Main
Default : Yes
Forced : Yes

Audio #2
ID : 3
Format : AC-3
Format/Info : Audio Coding 3
Format settings, Endianness : Big
Codec ID : A_AC3
Duration : 1 h 32 min
Bit rate mode : Constant
Bit rate : 192 kb/s
Channel(s) : 2 channels
Channel positions : Front: L R
Sampling rate : 48.0 kHz
Frame rate : 31.250 FPS (1536 SPF)
Bit depth : 16 bits
Compression mode : Lossy
Stream size : 127 MiB (7%)
Title : K1
Language : Ukrainian
Service kind : Complete Main
Default : No
Forced : No

Audio #3
ID : 4
Format : AC-3
Format/Info : Audio Coding 3
Format settings, Endianness : Big
Codec ID : A_AC3
Duration : 1 h 32 min
Bit rate mode : Constant
Bit rate : 448 kb/s
Channel(s) : 6 channels
Channel positions : Front: L C R, Side: L R, LFE
Sampling rate : 48.0 kHz
Frame rate : 31.250 FPS (1536 SPF)
Bit depth : 16 bits
Compression mode : Lossy
Stream size : 296 MiB (16%)
Title : Original
Language : Korean
Service kind : Complete Main
Default : No
Forced : No

Text
ID : 5
Format : UTF-8
Codec ID : S_TEXT/UTF8
Codec ID/Info : UTF-8 Plain Text
Duration : 1 h 28 min
Bit rate : 2 b/s
Count of elements : 24
Stream size : 1.47 KiB (0%)
Title : Forced
Language : Ukrainian
Default : Yes
Forced : Yes

Menu
00:00:00.000 : en:Chapter 01
00:05:52.833 : en:Chapter 02
00:10:54.416 : en:Chapter 03
00:15:57.500 : en:Chapter 04
00:20:32.833 : en:Chapter 05
00:28:21.666 : en:Chapter 06
00:40:14.875 : en:Chapter 07
00:46:15.166 : en:Chapter 08
00:54:17.666 : en:Chapter 09
01:05:17.625 : en:Chapter 10
01:15:07.166 : en:Chapter 11
01:21:29.125 : en:Chapter 12
01:32:17.916 : en:Chapter 13
Скріншоти
Подяки:
Запис з ТБ доріжки №1: Sando7
Запис з ТБ доріжки №2: xslim
Переклад форсованих субтитрів: Smu
Джерело:
Особиста оцінка: 0 - не дивився


 Трекер:    Зареєстрований   

Завантажити / скачати мультфільм українською



відео для новачків



 Зареєстрований:   2021-03-03 17:47
 Розмір:   1.75 GB 
 Оцінка мультфільму:   10/10 (Голосів: 13)
   
Інші релізи
   Відважна Ліфі / Madangeul Naon Amtak (2011) Smu  3 / 0   1.29 GB   2014-11-27 10:55 
   Відважна Ліфі / Madangeul Naon Amtak (2011) 1080p Ukr/Kor Smu  7 / 0   4.49 GB   2014-11-26 12:11 
Anonymous 







2021-03-03 17:50  
Торрент оновлено. Додано якіснішу доріжку від

игорь 25 
Поважний учасник


З нами з: 02.10.17
Востаннє: 17.04.21
Повідомлень: 162

2021-03-03 23:53  
Я коли дивлюся, постійно плачу.
Хельга 48 
Свій


З нами з: 02.02.14
Востаннє: 12.04.21
Повідомлень: 136

2021-03-13 17:33  
Дуже зворушливо,наприкінці-до сліз,зовсім не дитячий мультфільм.Як завжди,дякую релізерам
Ваш часовий пояс: GMT + 2 Години

Нова тема   Відповісти