Червоний (2017) 1080p

Нові коментарі

Нова тема   Відповісти
Автор Повідомлення
Anonymous 







2021-03-01 03:42  
Червоний (2017) 1080p

Червоний (2017) 1080p


Жанр: бойовик, драма, історичний
Країна: Україна



Кінокомпанія: Артбокс, Одеська кіностудія, ІнсайтМедіа
Режисер: Заза Буадзе
Актори: Микола Береза, Олег Шульга, Олександр Мавріц, Любов Тищенко, Ігор Колтовський, Олег Стефан, Володимир Шпудейко та інші

Сюжет:
Під час Другої світової війни Данило Червоний був одним з командирів УПА. По закінченні війни Данило разом із багатьма українцями потрапив до ГУЛАГу. Серед інших земляків тут відбуває покарання Віктор Гуров. Він родом зі Сходу України та відстоював у тій війні зовсім інші ідеали. Але любов до малої батьківщини згуртувала в'язнів попри розбіжності у поглядах. Вони об’єднуються аби протистояти ватажку місцевих злодіїв у законі Колі Тайзі. Коли начальник табору майор Абрамов віддає наказ утискати українців до повного їх знищення, земляки наважуються на бунт.


Тривалість: 01:52:37
Якість: [AMZN]
Відео:
кодек:
розмір кадру: 1920 х 1040
бітрейт: 6888 кб/с

Аудіо:
мова: кацапська, частково українська
переклад: оригінал
кодек: 5.1
бітрейт: 640 кб/с
Info
Код:
General
Unique ID                                : 235169712741115301675545668288590998513 (0xB0EC0A07938B4FEEF4E4B79AD4756BF1)
Complete name                            : Червоний (2017) 1080p [Hurtom].
Format                                   :
Format version                           : Version 4
File size                                : 5.92 GiB
Duration                                 : 1 h 52 min
Overall bit rate mode                    : Constant
Overall bit rate                         : 7 530 kb/s
Movie name                               : Червоний (2017)
Encoded date                             : UTC 2021-02-28 22:45:30
Writing application                      : v53.0.0 ('Fool's Gold') 64-bit
Writing library                          : libebml v1.4.1 + v1.6.2
Cover                                    : Yes
Attachments                              : cover.jpg

Video
ID                                       : 1
Format                                   : AVC
Format/Info                              : Advanced Video Codec
Format profile                           : [email protected]
Format settings                          : CABAC / 4 Ref Frames
Format settings, CABAC                   : Yes
Format settings, Reference frames        : 4 frames
Codec ID                                 : V_MPEG4/ISO/AVC
Duration                                 : 1 h 52 min
Bit rate mode                            : Constant
Bit rate                                 : 6 888 kb/s
Nominal bit rate                         : 10 000 kb/s
Width                                    : 1 920 pixels
Height                                   : 1 040 pixels
Display aspect ratio                     : 1.85:1
Frame rate mode                          : Constant
Frame rate                               : 24.000 FPS
Color space                              : YUV
Chroma subsampling                       : 4:2:0
Bit depth                                : 8 bits
Scan type                                : Progressive
Bits/(Pixel*Frame)                       : 0.144
Stream size                              : 5.42 GiB (91%)
Default                                  : Yes
Forced                                   : No
Color range                              : Limited
Color primaries                          : BT.709
Transfer characteristics                 : BT.709
Matrix coefficients                      : BT.709

Audio
ID                                       : 2
Format                                   : E-AC-3
Format/Info                              : Enhanced AC-3
Commercial name                          : Dolby Digital Plus
Codec ID                                 : A_EAC3
Duration                                 : 1 h 52 min
Bit rate mode                            : Constant
Bit rate                                 : 640 kb/s
Channel(s)                               : 6 channels
Channel layout                           : L R C LFE Ls Rs
Sampling rate                            : 48.0 kHz
Frame rate                               : 31.250 FPS (1536 SPF)
Compression mode                         : Lossy
Stream size                              : 516 MiB (8%)
Language                                 : Ukrainian
Service kind                             : Complete Main
Default                                  : Yes
Forced                                   : No

Скріншоти





Джерело:


Золотий реліз (завантажене не впливає на рейтинг)
 Трекер:    Зареєстрований   

Завантажити / скачати український фільм



відео для новачків



 Зареєстрований:   2021-03-01 03:42
 Розмір:   5.92 GB 
 Оцінка фільму:   9.9/10 (Голосів: 17)
   
Ваш часовий пояс: GMT + 2 Години

Нова тема   Відповісти