Таємниця будинку іграшок / Tea Pets (2017) AVC 2xUkr/Chi

Нові коментарі

Нова тема   Відповісти
Автор Повідомлення
Anonymous 







2021-02-28 16:33  
Таємниця будинку іграшок / Tea Pets (2017) AVC 2xUkr/Chi

Таємниця будинку іграшок / Tea Pets (2017) AVC 2xUkr/Chi
Альтернативні постери:

Таємниця будинку іграшок / Tea Pets (2017) AVC 2xUkr/Chi







Таємниця будинку іграшок / Tea Pets (2017) AVC 2xUkr/Chi

Таємниця будинку іграшок / Tea Pets (2017) AVC 2xUkr/Chi


Жанр: анімація, сімейний, фентезі, пригодницький
Країна: Китай



Кінокомпанія: Light Chaser Animation Studios
Режисер: Ґері Ван / Gary Wang
В оригіналі ролі озвучили: Ші Лей, Юань Цзеюй, Цзі Гуаньлінь, Хун Хуан, Чжан Лей, Янь Яньшен, Івонн Чжао

Сюжет:
Робот Таймбот падає на Землю після того, як його космічний корабель зазнає аварії. Він потрапляє в магазин порцелянових іграшок, мешканці якого жили тихим і спокійним життям - грали, а ночами лякали один одного історіями про якогось Правителя підземелля, який за допомогою вірних помічників - щурів викрадає їх друзів з сусідніх магазинів. Одного разу пропадає їх подружка Мей, і іграшки на чолі з Таймботом тікають з магазину і вирушають в місто на її пошуки. З цього і починаються цікаві, повні гумору та пригод подорожі маленьких героїв під здивовані погляди мешканців міста.
Офіційний український трейлер:


Вікова категорія: 6+

Тривалість: 01:37:35
Якість: AVC

Відео:
кодек:
розмір кадру: 1024x424
бітрейт: 1 295 кб/с

Аудіо #1:
мова: українська
озвучення: професійний дубляж | студія Tretyakoff production
кодек: 5.1
бітрейт: 384 Кбіт/сек

Аудіо # 2:
мова: українська
озвучення: професійне, багатоголосе закадрове
кодек: 2.0
бітрейт: 192 Кбіт/сек
примітка: озвучено поверх англійського дубляжу

Аудіо # 3:
мова: китайська
озвучення: оригінал
кодек: 2.0
бітрейт: 192 Кбіт/сек
Info
Код:
General
Unique ID                      : 208745215211613676746418518837036079761 (0x9D0ADDB6EB10310FD2938ABB5A405A91)
Complete name                  : D:\Tea Pets (2017) AVC [UKR_CHI] [Hurtom].
Format                         :
Format version                 : Version 4 / Version 2
File size                      : 1.41 GiB
Duration                       : 1 h 37 min
Overall bit rate               : 2 066 kb/s
Movie name                     : Таємниця будинку іграшок / Tea Pets (2017)
Encoded date                   : UTC 2021-02-28 13:20:49
Writing application            : v51.0.0 ('I Wish') 32-bit
Writing library                : libebml v1.4.0 + v1.6.2
Cover                          : Yes
Attachments                    : cover.jpg

Video
ID                             : 1
Format                         : AVC
Format/Info                    : Advanced Video Codec
Format profile                 : [email protected]
Format settings, CABAC         : Yes
Format settings, RefFrames     : 10 frames
Codec ID                       : V_MPEG4/ISO/AVC
Duration                       : 1 h 37 min
Bit rate                       : 1 295 kb/s
Width                          : 1 024 pixels
Height                         : 424 pixels
Display aspect ratio           : 2.40:1
Frame rate mode                : Constant
Frame rate                     : 24.000 FPS
Color space                    : YUV
Chroma subsampling             : 4:2:0
Bit depth                      : 8 bits
Scan type                      : Progressive
Bits/(Pixel*Frame)             : 0.124
Stream size                    : 905 MiB (63%)
Writing library                : core 159
Encoding settings              : cabac=1 / ref=10 / deblock=1:0:0 / analyse=0x3:0x133 / me=umh / subme=10 / psy=1 / psy_rd=1.00:0.00 / mixed_ref=1 / me_range=24 / chroma_me=1 / trellis=2 / 8x8dct=1 / cqm=0 / deadzone=21,11 / fast_pskip=1 / chroma_qp_offset=-2 / threads=13 / lookahead_threads=2 / sliced_threads=0 / nr=0 / decimate=1 / interlaced=0 / bluray_compat=0 / constrained_intra=0 / bframes=8 / b_pyramid=2 / b_adapt=2 / b_bias=0 / direct=3 / weightb=1 / open_gop=0 / weightp=2 / keyint=250 / keyint_min=24 / scenecut=40 / intra_refresh=0 / rc_lookahead=60 / rc=crf / mbtree=1 / crf=19.0 / qcomp=0.60 / qpmin=0 / qpmax=69 / qpstep=4 / ip_ratio=1.40 / aq=1:1.00
Language                       : Chinese
Default                        : Yes
Forced                         : No

Audio #1
ID                             : 2
Format                         : AC-3
Format/Info                    : Audio Coding 3
Format settings, Endianness    : Big
Codec ID                       : A_AC3
Duration                       : 1 h 37 min
Bit rate mode                  : Constant
Bit rate                       : 384 kb/s
Channel(s)                     : 6 channels
Channel positions              : Front: L C R, Side: L R, LFE
Sampling rate                  : 48.0 kHz
Frame rate                     : 31.250 FPS (1536 SPF)
Bit depth                      : 16 bits
Compression mode               : Lossy
Delay relative to video        : -42 ms
Stream size                    : 269 MiB (19%)
Title                          : Tretyakoff production
Language                       : Ukrainian
Service kind                   : Complete Main
Default                        : Yes
Forced                         : Yes

Audio #2
ID                             : 3
Format                         : AC-3
Format/Info                    : Audio Coding 3
Format settings, Endianness    : Big
Codec ID                       : A_AC3
Duration                       : 1 h 37 min
Bit rate mode                  : Constant
Bit rate                       : 192 kb/s
Channel(s)                     : 2 channels
Channel positions              : Front: L R
Sampling rate                  : 48.0 kHz
Frame rate                     : 31.250 FPS (1536 SPF)
Bit depth                      : 16 bits
Compression mode               : Lossy
Delay relative to video        : -42 ms
Stream size                    : 134 MiB (9%)
Title                          : Kids HD
Language                       : Ukrainian
Service kind                   : Complete Main
Default                        : No
Forced                         : No

Audio #3
ID                             : 4
Format                         : AC-3
Format/Info                    : Audio Coding 3
Format settings, Endianness    : Big
Codec ID                       : A_AC3
Duration                       : 1 h 37 min
Bit rate mode                  : Constant
Bit rate                       : 192 kb/s
Channel(s)                     : 2 channels
Channel positions              : Front: L R
Sampling rate                  : 48.0 kHz
Frame rate                     : 31.250 FPS (1536 SPF)
Bit depth                      : 16 bits
Compression mode               : Lossy
Delay relative to video        : -42 ms
Stream size                    : 134 MiB (9%)
Title                          : Original
Language                       : Chinese
Service kind                   : Complete Main
Default                        : No
Forced                         : No

Menu
00:00:00.000                   : en:Chapitre 1
00:09:50.000                   : en:Chapitre 2
00:20:35.500                   : en:Chapitre 3
00:31:07.208                   : en:Chapitre 4
00:40:08.749                   : en:Chapitre 5
00:51:20.874                   : en:Chapitre 6
00:59:38.707                   : en:Chapitre 7
01:09:53.998                   : en:Chapitre 8
01:19:10.289                   : en:Chapitre 9
01:28:52.996                   : en:Chapitre 10

Скріншоти
Джерело:
Доріжку №1 взято тут: https://toloka.to/t99532
За доріжку №2 дякую п. Sando7


 Трекер:    Зареєстрований   

Завантажити / скачати мультфільм українською



відео для новачків



 Зареєстрований:   2021-02-28 16:33
 Розмір:   1.41 GB 
 Оцінка мультфільму:   9.9/10 (Голосів: 7)
   
Інші релізи
Ваш часовий пояс: GMT + 2 Години

Нова тема   Відповісти