Северин Наливайко. Остання битва! (2019) AVC

Нові коментарі

Нова тема   Відповісти
Автор Повідомлення
Anonymous 







2021-02-27 04:51  
Северин Наливайко. Остання битва! (2019) AVC

Северин Наливайко. Остання битва! (2019) AVC


Жанр: документально-ігровий, драма, історичний
Країна: Україна

Кінокомпанія: Eidetic Pictures
Режисер: Ігор Висневський
Актори: Євген Олійник, Олександр Форманчук, Денис Шевченко, Віктор Кошевенко, Василь Кухарський, Сергій Петько, Олександр Ганноченко, Марія Кочук, Олена Хохлаткіна, В'ячеслав Давидюк, Роман Халаімов, Ірина Гришак та ін.

Сюжет:
Щоб повернути свої спадкові права, Северин Наливайко (невизнаний син князя Дмитра Сангушка і княжни Гальшки Острозької), на чолі війська з таких саме позбавлених прав сміливців б’ється проти армії Речі Посполитої за свободу України: адже тільки у вільній «Козацькій республіці» він може відновити справедливість і стати тим, ким є по праву.
Але найстрашнішим ворогом Наливайка стають не поляки, а власні союзники-запорожці, для яких станова пиха є сильнішою за почуття єдиного народу.


Тривалість: 01:30:00
Якість: [Hurtom]
Відео:
кодек:
розмір кадру: 976х 440
бітрейт: 1345 кб/с
примітка: з запису UA:Перший HD

Аудіо:
мова: українська
переклад: оригінал
кодек: 2.0
бітрейт: 96 кб/с
Info та log
Код:
General
Unique ID                   : 329200021394303010125561298542395783111 (0xF7A99E2E03A1612F53E41C163585F7C7)
Complete name               : Severyn Nalyvajko. Ostannya bytva! (2019) AVC [Hurtom].
Format                      :
Format version              : Version 4
File size                   : 928 MiB
Duration                    : 1 h 30 min
Overall bit rate            : 1 442 kb/s
Movie name                  : Северин Наливайко. Остання битва! (2019) AVC [Hurtom]
Encoded date                : UTC 2021-02-27 03:03:06
Writing application         : v54.0.0 ('F Maj Pixie') 64-bit
Writing library             : libebml v1.4.2 + v1.6.3
Cover                       : Yes
Attachments                 : cover.jpg

Video
ID                          : 1
Format                      : AVC
Format/Info                 : Advanced Video Codec
Format profile              : [email protected]
Format settings             : CABAC / 12 Ref Frames
Format settings, CABAC      : Yes
Format settings, Reference  : 12 frames
Codec ID                    : V_MPEG4/ISO/AVC
Duration                    : 1 h 30 min
Bit rate                    : 1 345 kb/s
Width                       : 976 pixels
Height                      : 440 pixels
Display aspect ratio        : 2.2:1
Frame rate mode             : Constant
Frame rate                  : 25.000 FPS
Color space                 : YUV
Chroma subsampling          : 4:2:0
Bit depth                   : 8 bits
Scan type                   : Progressive
Bits/(Pixel*Frame)          : 0.125
Stream size                 : 866 MiB (93%)
Title                       : Северин Наливайко. Остання битва! (2019) AVC [Hurtom]
Writing library             : core 157 r2969 d4099dd
Encoding settings           : cabac=1 / ref=12 / deblock=1:-3:-3 / analyse=0x3:0x133 / me=umh / subme=11 / psy=1 / psy_rd=1.00:0.15 / mixed_ref=1 / me_range=32 / chroma_me=1 / trellis=2 / 8x8dct=1 / cqm=0 / deadzone=21,11 / fast_pskip=1 / chroma_qp_offset=-3 / threads=6 / lookahead_threads=1 / sliced_threads=0 / nr=0 / decimate=1 / interlaced=0 / bluray_compat=0 / constrained_intra=0 / bframes=6 / b_pyramid=2 / b_adapt=2 / b_bias=0 / direct=3 / weightb=1 / open_gop=0 / weightp=2 / keyint=250 / keyint_min=25 / scenecut=40 / intra_refresh=0 / rc_lookahead=60 / rc=crf / mbtree=0 / crf=19.0 / qcomp=0.60 / qpmin=0 / qpmax=69 / qpstep=4 / vbv_maxrate=9200 / vbv_bufsize=11500 / crf_max=0.0 / nal_hrd=none / filler=0 / ip_ratio=1.40 / pb_ratio=1.30 / aq=3:1.00
Language                    : Ukrainian
Default                     : Yes
Forced                      : No

Audio
ID                          : 2
Format                      : LC SBR
Format/Info                 : Advanced Audio Codec Low Complexity with Spectral Band Replication
Commercial name             : HE-
Format settings             : Implicit
Codec ID                    : A_AAC-2
Duration                    : 1 h 30 min
Bit rate                    : 96.0 kb/s
Channel(s)                  : 2 channels
Channel layout              : L R
Sampling rate               : 48.0 kHz
Frame rate                  : 23.438 FPS (2048 SPF)
Compression mode            : Lossy
Stream size                 : 61.0 MiB (7%)
Language                    : Ukrainian
Default                     : Yes
Forced                      : No

Код:
y4m [info]: 976x440p 1:1 @ 25/1 fps (cfr)
[info]: using SAR=1/1
[info]: using cpu capabilities: MMX2 SSE2Fast SSSE3 SSE4.2 AVX FMA3 BMI2 AVX2
[info]: profile Progressive High, level 4.1, 4:2:0, 8-bit
[info]: frame I:801   Avg QP:15.69  size: 44025
[info]: frame P:35825 Avg QP:17.17  size: 15447
[info]: frame B:98391 Avg QP:20.02  size:  3246
[info]: consecutive B-frames:  1.6%  4.4%  2.0% 86.4%  2.9%  2.4%  0.2%
[info]: mb I  I16..4:  7.5% 71.0% 21.4%
[info]: mb P  I16..4:  1.2%  9.8%  1.7%  P16..4: 31.5% 34.9% 12.2%  1.7%  0.2%    skip: 6.8%
[info]: mb B  I16..4:  0.1%  0.8%  0.1%  B16..8: 22.1% 13.0%  2.6%  direct: 5.8%  skip:55.4%  L0:36.0% L1:44.6% BI:19.3%
[info]: 8x8 transform intra:77.0% inter:54.5%
[info]: direct mvs  spatial:100.0% temporal:0.0%
[info]: coded y,uvDC,uvAC intra: 81.2% 79.4% 54.8% inter: 15.7% 16.0% 1.9%
[info]: i16 v,h,dc,p: 33% 16%  8% 43%
[info]: i8 v,h,dc,ddl,ddr,vr,hd,vl,hu: 16%  9% 10%  8% 10% 12% 10% 12% 13%
[info]: i4 v,h,dc,ddl,ddr,vr,hd,vl,hu: 24% 11% 14%  6% 10% 11%  9%  8%  8%
[info]: i8c dc,h,v,p: 32% 31% 22% 15%
[info]: Weighted P-Frames: Y:3.5% UV:2.2%
[info]: ref P L0: 51.4% 11.3% 17.6%  4.3%  3.9%  2.6%  2.6%  1.3%  1.4%  1.1%  1.2%  1.2%  0.1%  0.0%
[info]: ref B L0: 86.4%  7.7%  1.9%  1.0%  0.8%  0.6%  0.7%  0.3%  0.3%  0.2%  0.1%
[info]: ref B L1: 98.6%  1.4%
[info]: kb/s:1345.00
encoded 135017 frames, 18.96 fps, 1345.00 kb/s
Final statistics
Constant Quality Mode: Quality 19 computed...
Video Bitrate Obtained (approximate): 1345 kbit/s



Джерело:


Золотий реліз (завантажене не впливає на рейтинг)
 Трекер:    Зареєстрований   

Завантажити / скачати український фільм



відео для новачків



 Зареєстрований:   2021-02-27 06:17
 Розмір:   928 MB 
 Оцінка фільму:   9.5/10 (Голосів: 22)
 ЗАЛИШАЙТЕСЬ ЯКОМОГА ДОВШЕ НА РОЗДАЧІ! ЗАВАНТАЖИВ САМ - ДАЙ ЗАВАНТАЖИТИ ІНШИМ!
   
bot 
робот


З нами з: 30.09.07
Востаннє: 26.05.05
Повідомлень: 27963

2021-02-27 06:17  
Тему перенесено з Анонси релізів до форуму Художні фільми


igor911

Ваш часовий пояс: GMT + 2 Години

Нова тема   Відповісти