Казка старого мельника (2020) AVC

Нові коментарі

Нова тема   Відповісти
Автор Повідомлення
Anonymous 







2021-02-26 20:46  
Казка старого мельника (2020) AVC

Казка старого мельника (2020) AVC


Жанр: фентезі, сімейний
Країна: Україна



Кінокомпанія: Євромедіа Компані
Режисер: Олександр Ітигілов
Актори: Анна Кошмал, Валентин Томусяк, Олексій Богданович, Ада Роговцева, Володимир Горянський, Ірма Вітовська, Остап Ступка, Анатолій Хостікоєв, Наталія Сумська, Євген Нищук, Олексій Вертинський, Олеся Жураківська, Гарік Бірча, Василь Бендас, Леонід Шевченко

Сюжет:
Хлопчаки з нетерпінням чекають на старого Мельника, від якого хочуть почути історії про прадавні часи, пригоди та дива: про шляхетних лицарів, лісовиків та водяних, повітруль та песиголовців. І ось Мельник починає свою казку…


Тривалість: 01:33:00
Якість: [Hurtom]

Відео:
кодек:
розмір кадру: 1024х432
бітрейт: 1993 кб/с

Аудіо:
мова: українська
переклад: оригінал
кодек: 5.1
бітрейт: 128 кб/с
Info та log
Код:
General
Unique ID                   : 270598549725262820109117621965613612564 (0xCB93628E3447D174099FD4206242BE14)
Complete name               : Kazka starogo melnyka (2020) AVC [Hurtom].
Format                      :
Format version              : Version 4
File size                   : 1.38 GiB
Duration                    : 1 h 33 min
Overall bit rate            : 2 124 kb/s
Movie name                  : Казка старого мельника (2020) AVC [Hurtom]
Encoded date                : UTC 2021-02-27 02:23:07
Writing application         : v54.0.0 ('F Maj Pixie') 64-bit
Writing library             : libebml v1.4.2 + v1.6.3
Cover                       : Yes
Attachments                 : cover.jpg

Video
ID                          : 1
Format                      : AVC
Format/Info                 : Advanced Video Codec
Format profile              : [email protected]
Format settings             : CABAC / 12 Ref Frames
Format settings, CABAC      : Yes
Format settings, Reference  : 12 frames
Codec ID                    : V_MPEG4/ISO/AVC
Duration                    : 1 h 33 min
Bit rate                    : 1 993 kb/s
Width                       : 1 024 pixels
Height                      : 432 pixels
Display aspect ratio        : 2.40:1
Frame rate mode             : Constant
Frame rate                  : 24.000 FPS
Color space                 : YUV
Chroma subsampling          : 4:2:0
Bit depth                   : 8 bits
Scan type                   : Progressive
Bits/(Pixel*Frame)          : 0.188
Stream size                 : 1.30 GiB (94%)
Title                       : Казка старого мельника (2020) AVC [Hurtom]
Writing library             : core 157 r2969 d4099dd
Encoding settings           : cabac=1 / ref=12 / deblock=1:-3:-3 / analyse=0x3:0x133 / me=umh / subme=11 / psy=1 / psy_rd=1.00:0.15 / mixed_ref=1 / me_range=32 / chroma_me=1 / trellis=2 / 8x8dct=1 / cqm=0 / deadzone=21,11 / fast_pskip=1 / chroma_qp_offset=-3 / threads=6 / lookahead_threads=1 / sliced_threads=0 / nr=0 / decimate=1 / interlaced=0 / bluray_compat=0 / constrained_intra=0 / bframes=8 / b_pyramid=2 / b_adapt=2 / b_bias=0 / direct=3 / weightb=1 / open_gop=0 / weightp=2 / keyint=240 / keyint_min=24 / scenecut=40 / intra_refresh=0 / rc_lookahead=60 / rc=crf / mbtree=0 / crf=19.5 / qcomp=0.60 / qpmin=0 / qpmax=69 / qpstep=4 / vbv_maxrate=11350 / vbv_bufsize=14200 / crf_max=0.0 / nal_hrd=none / filler=0 / ip_ratio=1.40 / pb_ratio=1.30 / aq=3:1.00
Language                    : Ukrainian
Default                     : Yes
Forced                      : No

Audio
ID                          : 2
Format                      : LC
Format/Info                 : Advanced Audio Codec Low Complexity
Codec ID                    : A_AAC-2
Duration                    : 1 h 33 min
Bit rate                    : 128 kb/s
Channel(s)                  : 6 channels
Channel layout              : C L R Ls Rs LFE
Sampling rate               : 44.1 kHz
Frame rate                  : 43.066 FPS (1024 SPF)
Compression mode            : Lossy
Stream size                 : 85.2 MiB (6%)
Language                    : Ukrainian
Default                     : Yes
Forced                      : No


Код:

[info]: frame I:1046  Avg QP:16.83  size: 55260
[info]: frame P:35291 Avg QP:18.62  size: 20568
[info]: frame B:97599 Avg QP:21.56  size:  6217
[info]: consecutive B-frames:  3.6%  3.4% 13.4% 42.5% 19.5% 15.4%  1.1%  0.3%  0.7%
[info]: mb I  I16..4:  9.5% 56.2% 34.3%
[info]: mb P  I16..4:  2.4% 17.4%  4.7%  P16..4: 24.0% 24.8% 11.7%  2.9%  0.5%    skip:11.5%
[info]: mb B  I16..4:  0.8%  3.1%  0.5%  B16..8: 27.9% 20.1%  3.8%  direct: 5.9%  skip:37.9%  L0:38.7% L1:42.9% BI:18.4%
[info]: 8x8 transform intra:69.5% inter:51.0%
[info]: direct mvs  spatial:99.9% temporal:0.1%
[info]: coded y,uvDC,uvAC intra: 70.1% 86.2% 69.5% inter: 19.2% 23.8% 5.7%
[info]: i16 v,h,dc,p: 31% 32%  6% 31%
[info]: i8 v,h,dc,ddl,ddr,vr,hd,vl,hu: 15% 13% 13%  7%  8% 10% 10% 11% 13%
[info]: i4 v,h,dc,ddl,ddr,vr,hd,vl,hu: 23% 17% 14%  5%  8%  9%  8%  7%  8%
[info]: i8c dc,h,v,p: 37% 28% 20% 15%
[info]: Weighted P-Frames: Y:8.6% UV:5.9%
[info]: ref P L0: 59.0% 13.4% 12.2%  4.1%  3.3%  2.0%  1.7%  1.0%  1.1%  0.8%  0.7%  0.7%  0.1%  0.0%
[info]: ref B L0: 86.6%  5.9%  2.4%  1.3%  1.4%  0.6%  0.5%  0.4%  0.5%  0.2%  0.1%
[info]: ref B L1: 97.4%  2.6%
[info]: kb/s:1993.30
encoded 133936 frames, 17.14 fps, 1993.30 kb/s
Скріншоти


Джерело:


Золотий реліз (завантажене не впливає на рейтинг)
 Трекер:    Зареєстрований   

Завантажити / скачати український фільм



відео для новачків



 Зареєстрований:   2021-02-27 05:46
 Розмір:   1.38 GB 
 Оцінка фільму:   9.6/10 (Голосів: 41)
 ЗАЛИШАЙТЕСЬ ЯКОМОГА ДОВШЕ НА РОЗДАЧІ! ЗАВАНТАЖИВ САМ - ДАЙ ЗАВАНТАЖИТИ ІНШИМ!
   
bot 
робот


З нами з: 30.09.07
Востаннє: 26.05.05
Повідомлень: 27852

2021-02-27 05:45  
Тему перенесено з Анонси релізів до форуму Художні фільми


igor911

Chibzem 
Свій


З нами з: 06.01.17
Востаннє: 10.04.21
Повідомлень: 107

2021-02-27 15:50  
Як можна було покращити даний фільм:
1. Кращі діалоги між головними персонажами. Ця "топорність" псує враження.
2. Кращий грим "нечисті".
3. А все! Я лояльно відношусь до українського кіно-продукту, серйознішої критики давати не хочу і не буду.
І скажіть на милість якщо по пункту два можна здогататись що це питання бюджету (фінансів), то що заважало якісно пропрацювати пункт 1? Здогадуюсь, просто не приділили цьому належної уваги, прикро.
Р.S А ще є питання по дубляжу. Шкода що він взагалі потрібен, але якщо вже так, то можна ж краще.

Писар 
Новенький


З нами з: 09.02.12
Востаннє: 11.04.21
Повідомлень: 17

2021-02-28 13:16  
Файна казка, приємного перегляду!
don pedro 
Попереджень: 2
Попереджень: 2 


З нами з: 29.06.11
Востаннє: 11.04.21
Повідомлень: 19105

2021-02-28 13:38  
Chibzem
Грим - велика біда українського кіно.

papir25 
Частий відвідувач


З нами з: 25.02.15
Востаннє: 08.04.21
Повідомлень: 27

2021-02-28 21:22  
Радий що випускають українське
q-ball 
Свій


З нами з: 25.10.20
Востаннє: 11.04.21
Повідомлень: 65

2021-02-28 21:51  
Якось слабенько.
Місіс Хадсон 
Новенький


З нами з: 01.09.17
Востаннє: 09.04.21
Повідомлень: 13

2021-03-02 12:34  
Дивитися можна, але. але... Навіщо брати такі примітивні історії, якщо ті самі українські казки, наприклад "Яйце-райце", набагато яскравіші? Також питання до кастингу акторів. Навіщо це безброве обличчя Ганса в головній ролі, така невиразна князівна, якщо в Україні багато чорнобрових хлопців та чарівних жінок? Сказати, що для цих ролей потрібен великий драматичний талант не можна. Хоч би для очей радість була...
jigalov 
Новенький


З нами з: 08.08.12
Востаннє: 10.04.21
Повідомлень: 20

2021-03-06 23:23  
гарна казка.
ТиДиви 
Попереджень: 1
Попереджень: 1 


З нами з: 03.01.17
Востаннє: 10.04.21
Повідомлень: 168

2021-03-29 17:12  
Фільм цікавий. Будь ласка змініть Жанр: радянського слова з УССР сімейний на українське слово родинний.
Ваш часовий пояс: GMT + 2 Години

Нова тема   Відповісти