Джулія Блу / Julia Blue (2018) AVC

Нові коментарі

Нова тема   Відповісти
Автор Повідомлення
Anonymous 







2021-02-26 20:43  
Джулія Блу / Julia Blue (2018) AVC

Джулія Блу / Julia Blue (2018) AVC


Жанр: драма, мелодрама, воєнний
Країна: Україна, США



Кінокомпанія: KinoRox Productions, LaiLou Productions
Режисер: Роксі Топорович
Актори: Поліна Снісаренко, Дмитро Ярошенко, Дар'я Баріхашвілі, Людмила Шпиталєва, Андрій Май-Малахов, Віталій Салій, Роман Ясіновський, Вікторія Копоть, Євген Ярощук, Сергій Сипливий, Тетяна Захарчин, Ромчик Ульмер, Богдан Ревкевич, Анна Єпатко, Орест Ягиш, Іван Федорів, Ірина Савчин, Мар'яна Ульмер, Михайло Бурядник, Марія Міллер, Роман Бурак, Олександр Кнещук, Іван Демків, Віктор Годинець, Ігор Пранник, Маріон Кун, Руслан Петричка

Сюжет:
Юлія, студентка-фотожурналістка, живе у понівеченій війною Україні. Одного дня вона зустрічає молодого солдата, який щойно повернувся з передової, і закохується. Але почуття стають на заваді власній незалежності і світлому майбутньому.


Тривалість: 01:28:30
Якість: [Hurtom]
Відео:
кодек:
розмір кадру: 1024х428
бітрейт: 1944 кб/с

Аудіо:
мова: українська, російська
переклад: оригінал
кодек: 2.0 [стерео]
бітрейт: 192 кб/с
Info та log
Код:
General
Unique ID                   : 328112316890978000430534892416935325320 (0xF6D8223511884FB6B399392B8472EE88)
Complete name               : Julia Blue (2018) [Ukr] AVC [Hurtom].
Format                      :
Format version              : Version 4
File size                   : 1.32 GiB
Duration                    : 1 h 28 min
Overall bit rate            : 2 139 kb/s
Movie name                  : Джулія Блу / Julia Blue (2018) [Ukr] AVC [Hurtom]
Encoded date                : UTC 2021-02-26 21:42:27
Writing application         : v54.0.0 ('F Maj Pixie') 64-bit
Writing library             : libebml v1.4.2 + v1.6.3
Cover                       : Yes
Attachments                 : cover.jpg

Video
ID                          : 1
Format                      : AVC
Format/Info                 : Advanced Video Codec
Format profile              : [email protected]
Format settings             : CABAC / 12 Ref Frames
Format settings, CABAC      : Yes
Format settings, Reference  : 12 frames
Codec ID                    : V_MPEG4/ISO/AVC
Duration                    : 1 h 28 min
Bit rate                    : 1 944 kb/s
Width                       : 1 024 pixels
Height                      : 428 pixels
Display aspect ratio        : 2.40:1
Frame rate mode             : Constant
Frame rate                  : 24.000 FPS
Color space                 : YUV
Chroma subsampling          : 4:2:0
Bit depth                   : 8 bits
Scan type                   : Progressive
Bits/(Pixel*Frame)          : 0.185
Stream size                 : 1.20 GiB (91%)
Title                       : Джулія Блу / Julia Blue (2018) AVC [Hurtom]
Writing library             : core 157 r2969 d4099dd
Encoding settings           : cabac=1 / ref=12 / deblock=1:-3:-3 / analyse=0x3:0x133 / me=umh / subme=11 / psy=1 / psy_rd=1.00:0.15 / mixed_ref=1 / me_range=32 / chroma_me=1 / trellis=2 / 8x8dct=1 / cqm=0 / deadzone=21,11 / fast_pskip=1 / chroma_qp_offset=-3 / threads=6 / lookahead_threads=1 / sliced_threads=0 / nr=0 / decimate=1 / interlaced=0 / bluray_compat=0 / constrained_intra=0 / bframes=8 / b_pyramid=2 / b_adapt=2 / b_bias=0 / direct=3 / weightb=1 / open_gop=0 / weightp=2 / keyint=240 / keyint_min=24 / scenecut=40 / intra_refresh=0 / rc_lookahead=60 / rc=crf / mbtree=0 / crf=18.0 / qcomp=0.60 / qpmin=0 / qpmax=69 / qpstep=4 / vbv_maxrate=32768 / vbv_bufsize=40960 / crf_max=0.0 / nal_hrd=none / filler=0 / ip_ratio=1.40 / pb_ratio=1.30 / aq=3:1.00
Language                    : English
Default                     : Yes
Forced                      : No

Audio
ID                          : 2
Format                      : LC
Format/Info                 : Advanced Audio Codec Low Complexity
Codec ID                    : A_AAC-2
Duration                    : 1 h 28 min
Bit rate                    : 192 kb/s
Channel(s)                  : 2 channels
Channel layout              : L R
Sampling rate               : 48.0 kHz
Frame rate                  : 46.875 FPS (1024 SPF)
Compression mode            : Lossy
Stream size                 : 122 MiB (9%)
Language                    : Ukrainian
Default                     : Yes
Forced                      : No


Код:
[info]: frame I:857   Avg QP:13.68  size: 54296
[info]: frame P:31321 Avg QP:15.31  size: 20435
[info]: frame B:95263 Avg QP:17.10  size:  6338
[info]: consecutive B-frames:  1.8%  2.7%  7.8% 58.9% 10.2%  9.6%  2.6%  5.1%  1.3%
[info]: mb I  I16..4: 11.4% 59.5% 29.1%
[info]: mb P  I16..4:  2.1% 18.9%  5.4%  P16..4: 23.7% 28.1% 12.1%  2.8%  0.4%    skip: 6.5%
[info]: mb B  I16..4:  0.6%  3.0%  0.6%  B16..8: 30.7% 22.7%  4.2%  direct: 6.3%  skip:31.9%  L0:40.7% L1:43.7% BI:15.6%
[info]: 8x8 transform intra:70.8% inter:44.8%
[info]: direct mvs  spatial:99.9% temporal:0.1%
[info]: coded y,uvDC,uvAC intra: 75.4% 80.8% 66.4% inter: 19.2% 18.6% 5.0%
[info]: i16 v,h,dc,p: 41% 15% 13% 32%
[info]: i8 v,h,dc,ddl,ddr,vr,hd,vl,hu: 16% 12% 18%  6%  8%  9%  8% 10% 12%
[info]: i4 v,h,dc,ddl,ddr,vr,hd,vl,hu: 20% 13% 21%  6%  9%  9%  8%  7%  8%
[info]: i8c dc,h,v,p: 43% 27% 19% 11%
[info]: Weighted P-Frames: Y:2.2% UV:1.3%
[info]: ref P L0: 52.6%  9.8% 15.7%  5.4%  4.2%  2.9%  2.7%  1.5%  1.5%  1.2%  1.2%  1.2%  0.0%  0.0%
[info]: ref B L0: 80.8%  9.1%  3.7%  1.8%  1.2%  1.0%  0.8%  0.5%  0.5%  0.3%  0.2%
[info]: ref B L1: 95.9%  4.1%
[info]: kb/s:1944.01
encoded 127441 frames, 15.94 fps, 1944.01 kb/s



Джерело:


Золотий реліз (завантажене не впливає на рейтинг)
 Трекер:    Зареєстрований   

Завантажити / скачати український фільм



відео для новачків



 Зареєстрований:   2021-02-27 01:11
 Розмір:   1.32 GB 
 Оцінка фільму:   9.3/10 (Голосів: 14)
 ЗАЛИШАЙТЕСЬ ЯКОМОГА ДОВШЕ НА РОЗДАЧІ! ЗАВАНТАЖИВ САМ - ДАЙ ЗАВАНТАЖИТИ ІНШИМ!
   
Інші релізи
   Джулія Блу / Julia Blue (2018) 1080p ssTAss  18 / 0   2.59 GB   2021-01-25 01:37 
bot 
робот


З нами з: 30.09.07
Востаннє: 26.05.05
Повідомлень: 27965

2021-02-27 01:11  
Тему перенесено з Анонси релізів до форуму Художні фільми


igor911

Maters 
Відео Гуртом - підтримка та поширення
Відео Гуртом - підтримка та поширення


З нами з: 27.03.12
Востаннє: 23.04.21
Повідомлень: 2581

2021-04-14 20:40  
10/10. Гарний фільм як з технічної точки зору (актори, діалоги, ракурси, музика...) так і з емоційної (драматизм, любов, складний вибір, усвідомлення...)
Рекомендую дивитися!

Ваш часовий пояс: GMT + 2 Години

Нова тема   Відповісти