Дрібниці життя / Мелочи жизни (1980) DVBRip-AVC

Нові коментарі

Нова тема   Відповісти
Автор Повідомлення
Arsenfpu 
Відео Гуртом - фільмокрай
Відео Гуртом - фільмокрай


З нами з: 30.04.09
Востаннє: 23.04.21
Повідомлень: 8187

2021-02-24 23:05  
Дрібниці життя / Мелочи жизни (1980) DVBRip-AVC

Дрібниці життя / Мелочи жизни (1980) DVBRip-AVC


Жанр: драма
Країна: УРСР



Кінокомпанія: Кіностудія імені Олександра Довженка
Режисер: В'ячеслав Криштофович
Актори: Ольга Остроумова, Анатолій Грачов, Олександр Вокач, Володимир Нечепоренко, Ксенія Ніколаєва

Сюжет:
У сім'ї подружжя Буніних виникла напружена ситуація у відносинах. Їм не вдається зрозуміти, чому так сталося, Наташа і Саша не знають, як все виправити, і не впевнені в тому, чи потрібно виправляти взагалі щось. Єдине, на що вони згодні, так це на розлучення. Але цей процес вимагає багато формальностей від обох. І щоб їх залагодити, подружжя змушене ще спілкуватися між собою. Адже їм належить нелегке рішення житлового питання і хворобливий розділ майна. Зараз атмосфера в будинку гнітюча, але ж раніше була радісна. І фотографії на стіні тому підтвердження. Можна зрозуміти, як непросто героям все це пережити. Через повсякденні дрібниці зникли любов, радість і колишні приємні стосунки. Допомогти їхній проблемі марно намагаються родичі, особливо мама дружини. Але від цього ситуація ще більше загострюється. Подружжя вже не може приховати свою неприязнь один до одного перед сином, який стає свідком їхньої драми. Буніни разом підшукують житло для обміну. У новій квартирі їх змусила задуматися про свій намір розмова з її власником. І раптом вони дізнаються про повінь, яка затопила їхню дачу. Чи зможе стихійне лихо вплинути на рішення про розлучення?


Тривалість: 01:05:44
Якість: DVBRip-AVC
Відео:
кодек:
розмір кадру: 720 х 400
бітрейт: 1 800 кб/с

Аудіо:
мова: українська
переклад: багатоголосий закадровий
кодек: 2.0
бітрейт: 192 кб/с
Скріншоти














Про файл
General
Unique ID : 328003284993733471274307682117280043185 (0xF6C322850CC9C352E8995CBA0E9F90B1)
Complete name : D:\Дрібниці життя (1980) DVBRip-AVC [Hurtom].
Format :
Format version : Version 4
File size : 937 MiB
Duration : 1 h 5 min
Overall bit rate : 1 994 kb/s
Encoded date : UTC 2021-02-24 19:53:50
Writing application : v53.0.0 ('Fool's Gold') 64-bit
Writing library : libebml v1.4.1 + v1.6.2

Video
ID : 1
Format : AVC
Format/Info : Advanced Video Codec
Format profile : [email protected]
Format settings : CABAC / 8 Ref Frames
Format settings, CABAC : Yes
Format settings, Reference : 8 frames
Codec ID : V_MPEG4/ISO/AVC
Duration : 1 h 5 min
Bit rate : 1 800 kb/s
Width : 720 pixels
Height : 400 pixels
Display aspect ratio : 16:9
Frame rate mode : Constant
Frame rate : 25.000 FPS
Color space : YUV
Chroma subsampling : 4:2:0
Bit depth : 8 bits
Scan type : Progressive
Bits/(Pixel*Frame) : 0.250
Stream size : 846 MiB (90%)
Writing library : core 157 r2969 d4099dd
Encoding settings : cabac=1 / ref=8 / deblock=1:-1:-1 / analyse=0x3:0x133 / me=umh / subme=10 / psy=1 / psy_rd=1.00:0.15 / mixed_ref=1 / me_range=32 / chroma_me=1 / trellis=2 / 8x8dct=1 / cqm=0 / deadzone=21,11 / fast_pskip=0 / chroma_qp_offset=-3 / threads=12 / lookahead_threads=1 / sliced_threads=0 / nr=0 / decimate=1 / interlaced=0 / bluray_compat=0 / constrained_intra=0 / bframes=3 / b_pyramid=2 / b_adapt=2 / b_bias=0 / direct=3 / weightb=1 / open_gop=0 / weightp=2 / keyint=250 / keyint_min=25 / scenecut=40 / intra_refresh=0 / rc_lookahead=60 / rc=2pass / mbtree=1 / bitrate=1800 / ratetol=1.0 / qcomp=0.60 / qpmin=0 / qpmax=69 / qpstep=4 / cplxblur=20.0 / qblur=0.5 / vbv_maxrate=31250 / vbv_bufsize=31250 / nal_hrd=none / filler=0 / ip_ratio=1.40 / aq=1:1.00
Default : Yes
Forced : No

Audio
ID : 2
Format : AC-3
Format/Info : Audio Coding 3
Commercial name : Dolby Digital
Codec ID : A_AC3
Duration : 1 h 5 min
Bit rate mode : Constant
Bit rate : 192 kb/s
Channel(s) : 2 channels
Channel layout : L R
Sampling rate : 48.0 kHz
Frame rate : 31.250 FPS (1536 SPF)
Compression mode : Lossy
Stream size : 90.3 MiB (10%)
Title : Cine+
Language : Ukrainian
Service kind : Complete Main
Default : Yes
Forced : No
Джерело:
Особиста оцінка: не дивився


Золотий реліз (завантажене не впливає на рейтинг)
 Трекер:    Зареєстрований   

Завантажити / скачати український фільм



відео для новачків



 Зареєстрований:   2021-02-24 23:05
 Розмір:   937 MB 
 Оцінка фільму:   4/10 (Голосів: 6)
   
Ваш часовий пояс: GMT + 2 Години

Нова тема   Відповісти