Сатор / Sator (2019) 720p Ukr/Eng

Нові коментарі

Нова тема   Відповісти
Автор Повідомлення
killer2015 
VIP


З нами з: 30.01.15
Востаннє: 02.03.21
Повідомлень: 375

2021-02-24 10:54  
Сатор / Sator (2019) 720p Ukr/Eng

Сатор / Sator (2019) 720p Ukr/Eng

Жанр: жахи
Країна: США



Режисер: Джордан Грехем
Актори: Майкл Деніел, Рейчел Джонсон, Аврора Лоу, Гебріел Ніколсон, Джун Петерсон, Венді Тейлор

Сюжет:
Адам живе на самоті в хатині у лісі. У Адама є брат, який зрідка до нього заглядає, і бабуся, яка подружилася з духом на ім'я Сатор. Але у Сатора злі наміри: він залишає душу бабусі і концентрує свою увагу на Адамі та інших членах сім'ї.


Тривалість: 01:26:14
Якість: 720p
Відео:
кодек:
розмір кадру: 1248x520
бітрейт: 2766 кб/с

Аудіо#1:
мова: українська
переклад: багатоголосий закадровий (DniproFilm)
кодек: 5.1
бітрейт: 384 кб/с

Аудіо#2:
мова: англійська
переклад: оригінал[/color]
кодек: 5.1
бітрейт: 640 кб/с

Субтитри (forced):
мова: українська
тип: вбудовані (жорсткі)
Info
General
Unique ID : 129108658984952462284967556423136312365 (0x61216C599470F0229A5FCF0134DFFC2D)
Complete name : G:\Фільми\Sator.2019..720p.ukr.5.1_edit.
Format :
Format version : Version 4
File size : 2.33 GiB
Duration : 1 h 26 min
Overall bit rate : 3 867 kb/s
Writing application : Lavf58.20.100
Writing library : Lavf58.20.100
ErrorDetectionType : Per level 1

Video
ID : 1
Format : AVC
Format/Info : Advanced Video Codec
Format profile : [email protected]
Format settings : CABAC / 1 Ref Frames
Format settings, CABAC : Yes
Format settings, Reference frames : 1 frame
Format settings, GOP : M=1, N=30
Codec ID : V_MPEG4/ISO/AVC
Duration : 1 h 26 min
Bit rate : 2 766 kb/s
Width : 1 280 pixels
Height : 580 pixels
Display aspect ratio : 2.2:1
Frame rate mode : Constant
Frame rate : 23.976 (24000/1001) FPS
Color space : YUV
Chroma subsampling : 4:2:0
Bit depth : 8 bits
Scan type : Progressive
Bits/(Pixel*Frame) : 0.155
Stream size : 1.67 GiB (72%)
Default : Yes
Forced : No

Audio #1
ID : 2
Format : AC-3
Format/Info : Audio Coding 3
Commercial name : Dolby Digital
Codec ID : A_AC3
Duration : 1 h 26 min
Bit rate mode : Constant
Bit rate : 384 kb/s
Channel(s) : 6 channels
Channel layout : L R C LFE Ls Rs
Sampling rate : 48.0 kHz
Frame rate : 31.250 FPS (1536 SPF)
Compression mode : Lossy
Delay relative to video : 31 ms
Stream size : 237 MiB (10%)
Language : Ukrainian
Service kind : Complete Main
Default : Yes
Forced : No

Audio #2
ID : 3
Format : AC-3
Format/Info : Audio Coding 3
Commercial name : Dolby Digital
Codec ID : A_AC3
Duration : 1 h 26 min
Bit rate mode : Constant
Bit rate : 640 kb/s
Channel(s) : 6 channels
Channel layout : L R C LFE Ls Rs
Sampling rate : 48.0 kHz
Frame rate : 31.250 FPS (1536 SPF)
Compression mode : Lossy
Delay relative to video : 487 ms
Stream size : 395 MiB (17%)
Service kind : Complete Main
Default : Yes
Forced : No
Скріншоти




Джерело:
Особиста оцінка: 0 - не дивився


Авторський реліз (завантажувати можна без реєстрації)
 Трекер:    Зареєстрований   

Завантажити / скачати фільм українською



відео для новачків



 Зареєстрований:   2021-02-24 10:54
 Розмір:   2.33 GB 
 Оцінка фільму:   10/10 (Голосів: 2)
   
Інші релізи
   Сатор / Sator (2019) AVC Ukr/Eng | Sub Eng tilda4334  3 / 0   1.17 GB   2021-02-25 14:18 
   Сатор / Sator (2019) 1080p Ukr/Eng killer2015  6 / 0   4.36 GB   2021-02-24 11:44 
killer2015 
VIP


З нами з: 30.01.15
Востаннє: 02.03.21
Повідомлень: 375

2021-02-24 10:55  

+1080

Ваш часовий пояс: GMT + 2 Години

Нова тема   Відповісти