Місяць (Місяць 2112) / Moon (2009) 720p 3xUkr/Eng | Sub Ukr/Eng

Нові коментарі

Нова тема   Відповісти
Автор Повідомлення
Anonymous 







2021-02-24 09:59  
Місяць (Місяць 2112) / Moon (2009) 720p 3xUkr/Eng | Sub Ukr/Eng

Місяць (Місяць 2112) / Moon (2009) 720p 3xUkr/Eng | Sub Ukr/Eng


Жанр: фантастика, трилер, психологічний
Країна: Велика Британія



Кінокомпанія: Liberty Films UK, Xingu Films, Limelight Fund
Режисер: Дункан Джонс / Duncan Jones
Актори: Кевін Спейсі / Kevin Spacey, Сем Роквелл / Sam Rockwell, Кая Скоделаріо / Kaya Scodelario, Метт Беррі / Matt Berry, Малькольм Стюарт / Malcolm Stewart, Бенедікт Вонґ / Benedict Wong та інші

Сюжет:
У Сема Белла добігає кінця трирічний котракт, згідно якого він самотньо жив на місячній базі, видобуваючи гелій-3 - єдиний порятунок людства від енергетичної кризи. За цей час у нього було вдосталь можливостей як обміркувати своє минуле та зроблені помилки, так і спланувати майбутнє життя - достроковий вихід на пенсію та відпочинок з дружиною і донечкою. Але за кілька тижнів до відльоту розмірене життя Сема порушується незрозумілими видіннями, а що ближчає кінець його добровільного ув'язнення, тим зрозумілішим стає той дивний факт, що у Місяця є своя думка щодо подальшої долі Белла.


Тривалість: 01:37:09
Якість:
Відео:
кодек:
розмір кадру: 1280х534
бітрейт: 4792 кб/с

Аудіо # 1:
мова: українська
переклад: багатоголосий закадровий
кодек: 2.0
бітрейт: 192 кб/с

Аудіо # 2:
мова: українська
переклад: багатоголосий закадровий | "Три Крапки"
кодек: 2.0
бітрейт: 256 кб/с

Аудіо # 3:
мова: українська
переклад: любительський дубльований
кодек: 5.1
бітрейт: 384 кб/с

Аудіо # 4:
мова: англійська
переклад: оригінал
кодек: 5.1
бітрейт: 448 кб/с

Субтитри:
мова: українська
тип: програмні (м'які)
формат: *.srt

Субтитри:
мова: англійська
тип: програмні (м'які)
формат: *.
Info
General
Unique ID : 188517618649034547857763406409766363180 (0x8DD32C34C2EA7887A7226BB3D905602C)
Complete name : E:\Toloka\2021\Moon (2009) 720p.
Format :
Format version : Version 4
File size : 4.12 GiB
Duration : 1 h 37 min
Overall bit rate : 6 075 kb/s
Encoded date : UTC 2021-02-24 07:24:14
Writing application : v6.1.0 ('Old Devil') built on Mar 4 2013 09:10:42
Writing library : libebml v1.3.0 + v1.4.0
Attachments : moon_145_550.jpg

Video
ID : 1
Format : AVC
Format/Info : Advanced Video Codec
Format profile : [email protected]
Format settings : CABAC / 9 Ref Frames
Format settings, CABAC : Yes
Format settings, Reference : 9 frames
Codec ID : V_MPEG4/ISO/AVC
Duration : 1 h 37 min
Bit rate : 4 792 kb/s
Width : 1 280 pixels
Height : 534 pixels
Display aspect ratio : 2.40:1
Frame rate mode : Constant
Frame rate : 23.976 (24000/1001) FPS
Color space : YUV
Chroma subsampling : 4:2:0
Bit depth : 8 bits
Scan type : Progressive
Bits/(Pixel*Frame) : 0.292
Stream size : 3.17 GiB (77%)
Writing library : core 79 r1339M 82b80ef
Encoding settings : cabac=1 / ref=9 / deblock=1:-3:-3 / analyse=0x3:0x113 / me=umh / subme=9 / psy=1 / psy_rd=0.9:0.2 / mixed_ref=1 / me_range=48 / chroma_me=1 / trellis=2 / 8x8dct=1 / cqm=0 / deadzone=21,11 / chroma_qp_offset=-3 / threads=6 / nr=0 / decimate=0 / mbaff=0 / constrained_intra=0 / bframes=6 / b_pyramid=0 / b_adapt=2 / b_bias=0 / direct=3 / wpredb=1 / wpredp=2 / keyint=250 / keyint_min=25 / scenecut=40 / rc_lookahead=40 / rc=2pass / mbtree=1 / bitrate=4792 / ratetol=1.0 / qcomp=0.60 / qpmin=10 / qpmax=51 / qpstep=4 / cplxblur=20.0 / qblur=0.5 / ip_ratio=1.40 / aq=1:0.80
Language : English
Default : Yes
Forced : No

Audio #1
ID : 2
Format : AC-3
Format/Info : Audio Coding 3
Commercial name : Dolby Digital
Codec ID : A_AC3
Duration : 1 h 37 min
Bit rate mode : Constant
Bit rate : 192 kb/s
Channel(s) : 2 channels
Channel layout : L R
Sampling rate : 48.0 kHz
Frame rate : 31.250 FPS (1536 SPF)
Compression mode : Lossy
Stream size : 133 MiB (3%)
Title : UKR (K1)
Language : Ukrainian
Service kind : Complete Main
Default : Yes
Forced : Yes

Audio #2
ID : 3
Format : AC-3
Format/Info : Audio Coding 3
Commercial name : Dolby Digital
Codec ID : A_AC3
Duration : 1 h 37 min
Bit rate mode : Constant
Bit rate : 256 kb/s
Channel(s) : 2 channels
Channel layout : L R
Sampling rate : 48.0 kHz
Frame rate : 31.250 FPS (1536 SPF)
Compression mode : Lossy
Stream size : 178 MiB (4%)
Title : ukr (Три Крапки)
Language : Ukrainian
Service kind : Complete Main
Default : No
Forced : No

Audio #3
ID : 4
Format : AC-3
Format/Info : Audio Coding 3
Commercial name : Dolby Digital
Codec ID : A_AC3
Duration : 1 h 37 min
Bit rate mode : Constant
Bit rate : 384 kb/s
Channel(s) : 6 channels
Channel layout : L R C LFE Ls Rs
Sampling rate : 48.0 kHz
Frame rate : 31.250 FPS (1536 SPF)
Compression mode : Lossy
Stream size : 267 MiB (6%)
Title : UKR (DUB)
Language : Ukrainian
Service kind : Complete Main
Default : No
Forced : No

Audio #4
ID : 5
Format : AC-3
Format/Info : Audio Coding 3
Commercial name : Dolby Digital
Codec ID : A_AC3
Duration : 1 h 37 min
Bit rate mode : Constant
Bit rate : 448 kb/s
Channel(s) : 6 channels
Channel layout : L R C LFE Ls Rs
Sampling rate : 48.0 kHz
Frame rate : 31.250 FPS (1536 SPF)
Compression mode : Lossy
Stream size : 311 MiB (7%)
Title : ENG
Language : English
Service kind : Complete Main
Default : No
Forced : No

Text #1
ID : 6
Format : UTF-8
Codec ID : S_TEXT/UTF8
Codec ID/Info : UTF-8 Plain Text
Title : UKR
Language : Ukrainian
Default : Yes
Forced : No

Text #2
ID : 7
Format :
Codec ID : S_TEXT/
Codec ID/Info : Advanced Sub Station Alpha
Compression mode : Lossless
Title : ENG
Language : English
Default : No
Forced : No
Скріншоти




Джерело:


Авторський реліз (завантажувати можна без реєстрації)
 Трекер:    Зареєстрований   

Завантажити / скачати фільм українською



відео для новачків



 Зареєстрований:   2021-02-24 09:59
 Розмір:   4.12 GB 
 Оцінка фільму:   9.7/10 (Голосів: 6)
   
Ваш часовий пояс: GMT + 2 Години

Нова тема   Відповісти