Доктор Хто. Революція Далеків (Сезон 13, Серія 00) / Doctor Who. Revolution of the Daleks (Season 13, episode 00) (2021) AVC

Нові коментарі

Нова тема   Відповісти
Автор Повідомлення
DniproFilm 
VIP


З нами з: 10.10.18
Востаннє: 28.02.21
Повідомлень: 459

2021-02-23 21:05  
Доктор Хто. Революція Далеків (Сезон 13, Серія 00) / Doctor Who. Revolution of the Daleks (Season 13, episode 00) (2021) AVC

Доктор Хто. Революція Далеків (Сезон 13, Серія 00) / Doctor Who. Revolution of the Daleks (Season 13, episode 00) (2021) AVC


Жанр: фантастика
Країна: Велика Британія



Кінокомпанія / телеканал: BBC One
Режисер: Лі Хайвен Джонс
Актори/ролі озвучують: Джоді Віттакер, Бредлі Волш, Тосін Коул, Мандіп Гілл,Джон Барроумен, Кріс Нот, Гарріет Волтер, Глєєвий Любим

Сюжет:
Робертсон повертається і ненавмисно дає мутанту Далеку шанс клонуватися. Доктор за допомогою старого друга втікає з космічної в'язниці і повертається на допомогу.


Тривалість: 1 серія: ~ 71 хв. (цілком серій: 1)
Перелік серій
00. Revolution of the Daleks
Якість: AVC
Відео:
кодек:
розмір кадру: 960x480
бітрейт: ~1600 кб/с

Аудіо # 1:
мова: українська
переклад: багатоголосий закадровий | DniproFilm
кодек: 2.0
бітрейт: 160 кб/с
Info
Код:

Video
ID                          : 1
Format                      : AVC
Format/Info                 : Advanced Video Codec
Format profile              : [email protected]
Format settings             : CABAC / 1 Ref Frames
Format settings, CABAC      : Yes
Format settings, Reference  : 1 frame
Format settings, GOP        : M=1, N=30
Codec ID                    : avc1
Codec ID/Info               : Advanced Video Coding
Duration                    : 1 h 11 min
Bit rate                    : 1 658 kb/s
Maximum bit rate            : 3 302 kb/s
Width                       : 960 pixels
Height                      : 480 pixels
Display aspect ratio        : 2.000
Frame rate mode             : Constant
Frame rate                  : 25.000 FPS
Color space                 : YUV
Chroma subsampling          : 4:2:0
Bit depth                   : 8 bits
Scan type                   : Progressive
Bits/(Pixel*Frame)          : 0.144
Stream size                 : 847 MiB (91%)
Title                       : Doctor.Who.S13E00..DniproFilm.mp4
Language                    : English
Encoded date                : UTC 2021-02-13 18:20:28
Tagged date                 : UTC 2021-02-23 18:55:37
Codec configuration box     : avcC

Audio
ID                          : 2
Format                      : LC
Format/Info                 : Advanced Audio Codec Low Complexity
Codec ID                    : mp4a-67-2
Duration                    : 1 h 11 min
Bit rate mode               : Variable
Bit rate                    : 157 kb/s
Maximum bit rate            : 163 kb/s
Channel(s)                  : 2 channels
Channel layout              : L R
Sampling rate               : 48.0 kHz
Frame rate                  : 46.875 FPS (1024 SPF)
Compression mode            : Lossy
Stream size                 : 80.4 MiB (9%)
Title                       : Doctor Who.S13E00_STEREO.
Encoded date                : UTC 2021-02-23 18:55:34
Tagged date                 : UTC 2021-02-23 18:55:37
Скріншоти





Джерело озвучення: DniproFilm


Авторський реліз (завантажувати можна без реєстрації)
 Трекер:    Зареєстрований   

Завантажити / скачати серіал українською



відео для новачків



 Зареєстрований:   2021-02-23 21:05
 Розмір:   929 MB 
 Оцінка серіалу:   10/10 (Голосів: 4)
   
Seriy100293 
VIP


З нами з: 17.08.11
Востаннє: 01.03.21
Повідомлень: 465

2021-02-24 09:29  
Подальше озвучення серіалу планується?
palladin_jedi 
Новенький


З нами з: 17.06.17
Востаннє: 28.02.21
Повідомлень: 4

2021-02-26 22:10  
Дуже тяжко дивитися на це знущання над улюбленим серіалом
Misha-30 
Новенький


З нами з: 15.06.12
Востаннє: 01.03.21
Повідомлень: 5

2021-03-01 07:58  
palladin_jedi
погоджуюсь, але характерною рисою цього серіалу є те що він вміє відроджуватись неначе фенікс. Будемо сподіватись що ера бездарності Чібнела скоро закінчиться і за серіал візьмуться талановиті люди.

Ваш часовий пояс: GMT + 2 Години

Нова тема   Відповісти