Доктор Хто. Революція Далеків (Сезон 13, Серія 00) / Doctor Who. Revolution of the Daleks (Season 13, episode 00) (2021) 1080p Ukr/Eng

Нові коментарі

Нова тема   Відповісти
Автор Повідомлення
DniproFilm 
VIP


З нами з: 10.10.18
Востаннє: 05.03.21
Повідомлень: 459

2021-02-23 21:05  
Доктор Хто. Революція Далеків (Сезон 13, Серія 00) / Doctor Who. Revolution of the Daleks (Season 13, episode 00) (2021) 1080p Ukr/Eng

Доктор Хто. Революція Далеків (Сезон 13, Серія 00) / Doctor Who. Revolution of the Daleks (Season 13, episode 00) (2021) 1080p Ukr/Eng


Жанр: фантастика
Країна: Велика Британія



Кінокомпанія / телеканал: BBC One
Режисер: Лі Хайвен Джонс
Актори/ролі озвучують: Джоді Віттакер, Бредлі Волш, Тосін Коул, Мандіп Гілл,Джон Барроумен, Кріс Нот, Гарріет Волтер, Глєєвий Любим

Сюжет:
Робертсон повертається і ненавмисно дає мутанту Далеку шанс клонуватися. Доктор за допомогою старого друга втікає з космічної в'язниці і повертається на допомогу.


Тривалість: 1 серія: ~ 71 хв. (цілком серій: 1)
Перелік серій

00. Revolution of the Daleks
Якість:
Відео:
кодек:
розмір кадру: 1920x960
бітрейт: ~9000 кб/с

Аудіо # 1:
мова: українська
переклад: багатоголосий закадровий | DniproFilm
кодек: 5.1
бітрейт: 640 кб/с

Аудіо # 2:
мова: англійська
переклад: оригінал
кодек: 5.1
бітрейт: 640 кб/с
Info
Код:

Video
ID                          : 1
Format                      : AVC
Format/Info                 : Advanced Video Codec
Format profile              : [email protected]
Format settings             : CABAC / 1 Ref Frames
Format settings, CABAC      : Yes
Format settings, Reference  : 1 frame
Format settings, GOP        : M=1, N=30
Codec ID                    : V_MPEG4/ISO/AVC
Duration                    : 1 h 11 min
Bit rate                    : 8 700 kb/s
Width                       : 1 920 pixels
Height                      : 960 pixels
Display aspect ratio        : 2.000
Frame rate mode             : Constant
Frame rate                  : 25.000 FPS
Color space                 : YUV
Chroma subsampling          : 4:2:0
Bit depth                   : 8 bits
Scan type                   : Progressive
Bits/(Pixel*Frame)          : 0.189
Stream size                 : 4.34 GiB (87%)
Language                    : English
Default                     : Yes
Forced                      : No

Audio #1
ID                          : 2
Format                      : AC-3
Format/Info                 : Audio Coding 3
Commercial name             : Dolby Digital
Codec ID                    : A_AC3
Duration                    : 1 h 11 min
Bit rate mode               : Constant
Bit rate                    : 640 kb/s
Channel(s)                  : 6 channels
Channel layout              : L R C LFE Ls Rs
Sampling rate               : 48.0 kHz
Frame rate                  : 31.250 FPS (1536 SPF)
Compression mode            : Lossy
Stream size                 : 327 MiB (6%)
Title                       : DniproFilm
Language                    : Ukrainian
Service kind                : Complete Main
Default                     : Yes
Forced                      : No

Audio #2
ID                          : 3
Format                      : AC-3
Format/Info                 : Audio Coding 3
Commercial name             : Dolby Digital
Codec ID                    : A_AC3
Duration                    : 1 h 11 min
Bit rate mode               : Constant
Bit rate                    : 640 kb/s
Channel(s)                  : 6 channels
Channel layout              : L R C LFE Ls Rs
Sampling rate               : 48.0 kHz
Frame rate                  : 31.250 FPS (1536 SPF)
Compression mode            : Lossy
Stream size                 : 327 MiB (6%)
Language                    : English
Service kind                : Complete Main
Default                     : No
Forced                      : No
Скріншоти





Джерело озвучення: DniproFilm


Авторський реліз (завантажувати можна без реєстрації)
 Трекер:    Зареєстрований   

Завантажити / скачати серіал українською



відео для новачків



 Зареєстрований:   2021-02-23 21:05
 Розмір:   4.98 GB 
 Оцінка серіалу:   10/10 (Голосів: 2)
   
leicheman 
Відео Гуртом - фільмокрай
Відео Гуртом - фільмокрай


З нами з: 03.07.14
Востаннє: 06.03.21
Повідомлень: 5949

2021-02-23 21:28  
а 12 сезон не плнуєте озвучити?
Cartwright 
VIP


З нами з: 23.03.13
Востаннє: 06.03.21
Повідомлень: 453

2021-02-23 23:51  
Оце круто. Виходить 13 сезон буде DniproFilm озвучувати?
Ваш часовий пояс: GMT + 2 Години

Нова тема   Відповісти