Мій лагідний та ніжний зомбі / Fido (2006) Remux 1080р Ukr/Eng | Sub Eng

Нові коментарі

Нова тема   Відповісти
Автор Повідомлення
IronBee 
Поважний учасник


З нами з: 08.02.10
Востаннє: 08.03.21
Повідомлень: 239

2021-02-23 17:27  
Мій лагідний та ніжний зомбі / Fido (2006) Remux 1080р Ukr/Eng | Sub Eng

Мій лагідний та ніжний зомбі / Fido (2006) Remux 1080р Ukr/Eng | Sub Eng


Жанр: комедія, драма, жахи
Країна: Канада



Кінокомпанія: Anagram Pictures, Telefilm Canada
Режисер: Ендрю Керрі (Andrew Currie)
Актори: Девід Кей (David Kaye), Ян Скорчевський (Jan Skorzewski), Кевін Таєлл (Kevin Tyell), Енді Паркін (Andy Parkin)... ... Кері-Енн Мосс (Carrie-Anne Mos), Біллі Конолі (Billy Connolly), Ділан Бейкер (Dylan Baker)

Сюжет:
Багато років тому Земля пролетіла крізь хмару космічного пилу, який оживив мертвих і наділив їх ненаситною жадобою людської плоті. Планетою поширювався терор, аж поки було винайдено нашийник, який зробив зомбі керованими і навіть корисними. Завдяки винаходу компанії ZomCon зомбі стали садівниками, молочниками, прислугою, навіть домашніми улюбленцями. ZomCon намагається показати, що ситуація під контролем. Але чи так це насправді?

Тіммі Робінсон так не вважає. Він думає, що світ ввели в оману. Тіммі багато часу проводить у своїй кімнаті, бо він самотній - навіть батьки його не помічають. Тому коли мати купує зомбі, щоб той виконував хатню роботу, це стає для нього сюрпризом. Хлопець дуже дивується, коли нечисть пропонує пограти у м‘яча. А після того як зомбі рятує його від хуліганів, народжується справжня дружба, і Тіммі називає чудовисько Фідо.

Проте коли нашийник Фідо виходить з ладу, сусідам стає непереливки. Щоб розплутати справу, до міста приїжджає містер Боттомс, відомий фахівець із контролю над зомбі...


Тривалість: 01:32:30
Якість: Remux
Відео:
кодек:
розмір кадру: 1920 х 1080
бітрейт: 25 Mб/с

Аудіо # 1:
мова: українська
переклад: багатоголосий закадровий
кодек: 2.0
бітрейт: 192 кб/с

Аудіо # 2:
мова: англійська
переклад: оригінал
кодек: -HD MA 5.1
бітрейт: 1411 кб/с

Аудіо # 3:
мова: англійська
переклад: коментарі
кодек: 2.0
бітрейт: 192 кб/с

Субтитри:
мова: англійська
тип: програмні (м'які)
формат: *.srt
Info
General
Unique ID : 78622357755024446395094063440198445259 (0x3B261D84F2A46847D797AEDF056D28CB)
Complete name : D:\Films\Мій лагідний та ніжний зомбі Fido (2006) Remux 1080р UkrEng Sub Eng[Hurtom].
Format :
Format version : Version 4
File size : 17.2 GiB
Duration : 1 h 32 min
Overall bit rate mode : Variable
Overall bit rate : 26.6 Mb/s
Encoded date : UTC 2021-02-22 13:25:33
Writing application : v52.0.0 ('Secret For The Mad') 64-bit
Writing library : libebml v1.4.1 + v1.6.2
Cover : Yes
Attachments : cover.jpg

Video
ID : 1
Format : AVC
Format/Info : Advanced Video Codec
Format profile : [email protected]
Format settings : CABAC / 4 Ref Frames
Format settings, CABAC : Yes
Format settings, ReFrames : 4 frames
Codec ID : V_MPEG4/ISO/AVC
Duration : 1 h 31 min
Bit rate mode : Variable
Bit rate : 25.0 Mb/s
Maximum bit rate : 31.0 Mb/s
Width : 1 920 pixels
Height : 1 080 pixels
Display aspect ratio : 16:9
Frame rate mode : Constant
Frame rate : 29.970 (30000/1001) FPS
Standard : NTSC
Color space : YUV
Chroma subsampling : 4:2:0
Bit depth : 8 bits
Scan type : MBAFF
Scan type, store method : Interleaved fields
Scan order : Top Field First
Bits/(Pixel*Frame) : 0.402
Stream size : 16.0 GiB (93%)
Language : English
Default : No
Forced : No
Color range : Limited
Color primaries : BT.709
Transfer characteristics : BT.709
Matrix coefficients : BT.709

Audio #1
ID : 2
Format : AC-3
Format/Info : Audio Coding 3
Commercial name : Dolby Digital
Codec ID : A_AC3
Duration : 1 h 32 min
Bit rate mode : Constant
Bit rate : 192 kb/s
Channel(s) : 2 channels
Channel layout : L R
Sampling rate : 48.0 kHz
Frame rate : 31.250 FPS (1536 SPF)
Bit depth : 16 bits
Compression mode : Lossy
Stream size : 127 MiB (1%)
Title : 2.0 192 kbps багатоголосий закадровий 1+1
Language : Ukrainian
Service kind : Complete Main
Default : No
Forced : No

Audio #2
ID : 3
Format : XLL
Format/Info : Digital Theater Systems
Commercial name : -HD Master Audio
Codec ID : A_DTS
Duration : 1 h 32 min
Bit rate mode : Variable
Bit rate : 1 411 kb/s
Channel(s) : 6 channels
Channel layout : C L R Ls Rs LFE
Sampling rate : 48.0 kHz
Frame rate : 93.750 FPS (512 SPF)
Bit depth : 16 bits
Compression mode : Lossless
Stream size : 933 MiB (5%)
Title : -HD MA 5.1 1412 kbps
Language : English
Default : No
Forced : No

Audio #3
ID : 4
Format : AC-3
Format/Info : Audio Coding 3
Commercial name : Dolby Digital
Codec ID : A_AC3
Duration : 1 h 32 min
Bit rate mode : Constant
Bit rate : 192 kb/s
Channel(s) : 2 channels
Channel layout : L R
Sampling rate : 48.0 kHz
Frame rate : 31.250 FPS (1536 SPF)
Bit depth : 16 bits
Compression mode : Lossy
Stream size : 127 MiB (1%)
Title : 2.0 192 kbps - Commentary
Language : English
Service kind : Complete Main
Default : No
Forced : No

Text
ID : 5
Format : UTF-8
Codec ID : S_TEXT/UTF8
Codec ID/Info : UTF-8 Plain Text
Duration : 1 h 25 min
Bit rate : 45 b/s
Count of elements : 1037
Stream size : 28.5 KiB (0%)
Language : English
Default : No
Forced : No

Menu
00:00:00.000 : en:Chapter 1
00:08:05.084 : en:Chapter 2
00:19:46.151 : en:Chapter 3
00:24:19.524 : en:Chapter 4
00:31:38.897 : en:Chapter 5
00:35:16.714 : en:Chapter 6
00:39:53.758 : en:Chapter 7
00:44:03.607 : en:Chapter 8
00:48:36.647 : en:Chapter 9
00:53:30.040 : en:Chapter 10
01:00:39.168 : en:Chapter 11
01:06:56.979 : en:Chapter 12
01:11:09.064 : en:Chapter 13
01:14:57.693 : en:Chapter 14
01:22:02.984 : en:Chapter 15
01:24:10.045 : en:Chapter 16
Скріншоти





Джерело: &
Особиста оцінка: 9 - давно не бачив настільки якісне кіно


Золотий реліз (завантажене не впливає на рейтинг)
 Трекер:    Зареєстрований   

Завантажити / скачати фільм українською



відео для новачків



 Зареєстрований:   2021-02-23 17:27
 Розмір:   17.2 GB 
 Оцінка фільму:   9/10 (Голосів: 2)
   
Ваш часовий пояс: GMT + 2 Години

Нова тема   Відповісти