Племена Європи (Сезон 1) / Tribes of Europa (Season 1) (2021)

Нові коментарі

Нова тема   Відповісти
Автор Повідомлення
killer2015 
VIP


З нами з: 30.01.15
Востаннє: 07.03.21
Повідомлень: 382

2021-02-23 13:23  
Племена Європи (Сезон 1) / Tribes of Europa (Season 1) (2021)

Племена Європи (Сезон 1) / Tribes of Europa (Season 1) (2021)


Жанр: драма, фантастика, фентезі, серіал
Країна: Німеччина



Кінокомпанія / телеканал: Netflix
Режисер: Філіп Кох
Актори/ролі озвучують: Генрієтта Конфуріус, Олівер Мазуччі, Девід Алі Рашед, Еміліо Сакрая, Меліка Форутан, Джеймс Фолкнер, Роберт Маазер, Ана Улару

Сюжет:
У 2070 році троє братів і сестер вирішують змінити долю Європи після того, як глобальна катастрофа розколола її на мікродержави, які борються за панування.


Тривалість: 1 серія: 48:35 (цілком серій: 6)
Перелік серій
1. Chapter 1
2. Chapter 2
3. Chapter 3
4. Chapter 4
5. Chapter 5
6. Chapter 6
Якість:
Відео:
кодек:
розмір кадру: 720 х 360
бітрейт: 1794 кб/с

Аудіо:
мова: українська
переклад: багатоголосий закадровий (DniproFilm)
кодек: 2.0
бітрейт: 384 кб/с

Субтитри (forced):
мова: українська
тип: вбудовані (жорсткі) на надписи
Info
General
Complete name : G:\Фільми\Tribes.of.Europa.2021.S01.SD\Tribes.of.Europa.S01E01..400p.ukr.2.0.avi
Format : AVI
Format/Info : Audio Video Interleave
File size : 761 MiB
Duration : 48 min 35 s
Overall bit rate : 2 189 kb/s

Video
ID : 0
Format : MPEG-4 Visual
Format profile : Advanced [email protected]
Format settings : BVOP2
Format settings, BVOP : 2
Format settings, QPel : No
Format settings, GMC : No warppoints
Format settings, Matrix : Default (H.263)
Codec ID :
Codec ID/Hint :
Duration : 48 min 35 s
Bit rate : 1 794 kb/s
Width : 720 pixels
Height : 360 pixels
Display aspect ratio : 2.000
Frame rate : 24.000 FPS
Color space : YUV
Chroma subsampling : 4:2:0
Bit depth : 8 bits
Scan type : Progressive
Compression mode : Lossy
Bits/(Pixel*Frame) : 0.288
Stream size : 623 MiB (82%)
Writing library : 69

Audio
ID : 1
Format : AC-3
Format/Info : Audio Coding 3
Commercial name : Dolby Digital
Codec ID : 2000
Duration : 48 min 35 s
Bit rate mode : Constant
Bit rate : 384 kb/s
Channel(s) : 2 channels
Channel layout : L R
Sampling rate : 48.0 kHz
Frame rate : 31.250 FPS (1536 SPF)
Compression mode : Lossy
Stream size : 133 MiB (18%)
Alignment : Aligned on interleaves
Interleave, duration : 32 ms (0.77 video frame)
Service kind : Complete Main
Скріншоти



Джерело:
Особиста оцінка: 8 - мені сподобалося


Авторський реліз (завантажувати можна без реєстрації)
 Трекер:    Зареєстрований   

Завантажити / скачати серіал українською



відео для новачків



 Зареєстрований:   2021-02-23 13:23
 Розмір:   4.22 GB 
 Оцінка серіалу:   7.6/10 (Голосів: 20)
   
killer2015 
VIP


З нами з: 30.01.15
Востаннє: 07.03.21
Повідомлень: 382

2021-02-23 13:24  

staf777 
Відео Гуртом - підтримка та поширення
Відео Гуртом - підтримка та поширення


З нами з: 16.11.16
Востаннє: 08.03.21
Повідомлень: 5117

2021-02-23 14:59  
Бомба
Masanchick 
VIP


З нами з: 08.04.11
Востаннє: 07.03.21
Повідомлень: 1247

2021-02-23 15:09  
А може хтось субтитрами поділитися?, бо хочу авц реліз зробити з двома озвученнями
staf777 
Відео Гуртом - підтримка та поширення
Відео Гуртом - підтримка та поширення


З нами з: 16.11.16
Востаннє: 08.03.21
Повідомлень: 5117

2021-02-23 15:22  
Masanchick написано:
з двома озвученнями

а яке друге озвучення ?

Masanchick 
VIP


З нами з: 08.04.11
Востаннє: 07.03.21
Повідомлень: 1247

2021-02-23 15:30  
staf777
Від Байбаків вже кілька днів є, в мене руки не дійшли викласти на толоці

Додано через 6 хвилин 28 секунд:

Має бути ще й і третє озвучення https://toloka.to/t127542

staf777 
Відео Гуртом - підтримка та поширення
Відео Гуртом - підтримка та поширення


З нами з: 16.11.16
Востаннє: 08.03.21
Повідомлень: 5117

2021-02-23 15:40  
Як на мене один з найкращих серіалів цього року
apkc 
Новенький


З нами з: 15.11.16
Востаннє: 08.03.21
Повідомлень: 18

2021-02-24 16:10  
О, супер! Дякую :-)
Тільки хотів написати у замовлення, а вже є :-)

Aleks_Cat 
Свій


З нами з: 14.04.14
Востаннє: 07.03.21
Повідомлень: 52

2021-02-25 18:31  
Не знаю, відчуття від серіалу, наче якийсь квест проходиш. Рейтинг IMDB цілком виправданий.
Ваш часовий пояс: GMT + 2 Години

Нова тема   Відповісти