Ліга Європи УЄФА 2020/21 | Маккабі Тель-Авів - Шахтар Донецьк | 1/16 фіналу, 1-й матч | Футбол 2 (2021) IPTV 576p

Нові коментарі

Нова тема   Відповісти
Автор Повідомлення
misamisk 
Поважний учасник


З нами з: 16.10.17
Востаннє: 05.03.21
Повідомлень: 157

2021-02-22 16:28  
Ліга Європи УЄФА 2020/21 | Маккабі Тель-Авів - Шахтар Донецьк | 1/16 фіналу, 1-й матч | Футбол 2 (2021) IPTV 576p

Ліга Європи УЄФА 2020/21 | Маккабі Тель-Авів - Шахтар Донецьк | 1/16 фіналу, 1-й матч | Футбол 2 (2021) IPTV 576p


Телеканал: Футбол 2
Опис:
Матч відбувся ДД.ММ.РРРР у Тель-Авіві на стадіоні "Блумфілд".
Матч обслуговували:

Рефері: Франсуа Летесьє (Франція)
Асистенти рефері: Сіріл Мюньє (Франція), Мехді Рахмуні (Франція)
Четвертий арбітр: Карім Абед (Франція)
VAR: Клемен Тюрпен (Франція)
Асистент VAR: Жером Брісар (Франція)


Тривалість: 03:14:30
Якість:
Відео:
кодек:
розмір кадру: 1024x576
бітрейт: ~3500 кб/с

Аудіо:
мова: українська
переклад: одноголосий закадровий | Кирило Круторогов
кодек: 2.0
бітрейт: 137 кб/с

Примітка. Реліз містить перед- та післяматчеву студію "Шлях до Гданська" із розбором суперників, інформацією про стан "Шахтаря", кадрові проблеми, розбором голів після матчу і т.ін. Якщо Вам не цікава аналітика і Ви хочете просто подивитися футбол, перейдіть до відповідного розділу у плеєрі (англ. функція "Chapters"), або перемотайте відео на наступну хвилину: 00:51:27
Стартові склади
Info
Код:
General
Unique ID                                : 301146675369554438276292208400903120633 (0xE28EBD6EFB2FCFE57EF2006CFFC726F9)
Complete name                            : /Users/misha.yaremenko/Movies/UEFA.Europa.League.2020-21.Round.of.32.Maccabi.Tel.Aviv-Shakhtar.Donetsk.Match.1.IPTV.576p.
Format                                   :
Format version                           : Version 4
File size                                : 1.95 GiB
Duration                                 : 3 h 14 min
Overall bit rate mode                    : Variable
Overall bit rate                         : 1 434 kb/s
Movie name                               : UEFA Europa League 2020/21. Round of 32. Maccabi Tel Aviv FC - FC Shakhtar Donetsk. Match 1
Encoded date                             : UTC 2021-02-19 19:45:37
Writing application                      : v24.0.0 ('Beyond The Pale') 64-bit
Writing library                          : libebml v1.3.6 + v1.4.9

Video
ID                                       : 1
Format                                   : AVC
Format/Info                              : Advanced Video Codec
Format profile                           : [email protected]
Format settings                          : CABAC / 1 Ref Frames
Format settings, CABAC                   : Yes
Format settings, Reference frames        : 1 frame
Codec ID                                 : V_MPEG4/ISO/AVC
Duration                                 : 3 h 14 min
Bit rate mode                            : Variable
Bit rate                                 : 1 295 kb/s
Nominal bit rate                         : 1 892 kb/s
Maximum bit rate                         : 2 000 kb/s
Width                                    : 1 024 pixels
Height                                   : 576 pixels
Display aspect ratio                     : 16:9
Frame rate mode                          : Constant
Frame rate                               : 25.000 FPS
Color space                              : YUV
Chroma subsampling                       : 4:2:0
Bit depth                                : 8 bits
Scan type                                : Progressive
Bits/(Pixel*Frame)                       : 0.088
Stream size                              : 1.76 GiB (90%)
Title                                    : UEFA Europa League 2020/21. Round of 32. Maccabi Tel Aviv FC - FC Shakhtar Donetsk. Match 1
Writing library                          : core 160 r3000
Encoding settings                        : cabac=1 / ref=1 / deblock=1:0:0 / analyse=0x1:0x111 / me=hex / subme=4 / psy=1 / psy_rd=1.00:0.00 / mixed_ref=0 / me_range=16 / chroma_me=1 / trellis=1 / 8x8dct=0 / cqm=0 / deadzone=21,11 / fast_pskip=1 / chroma_qp_offset=0 / threads=3 / lookahead_threads=1 / sliced_threads=0 / nr=0 / decimate=1 / interlaced=0 / bluray_compat=0 / constrained_intra=0 / bframes=0 / weightp=1 / keyint=125 / keyint_min=12 / scenecut=0 / intra_refresh=0 / rc_lookahead=20 / rc=abr / mbtree=1 / bitrate=1892 / ratetol=1.0 / qcomp=0.60 / qpmin=0 / qpmax=69 / qpstep=4 / vbv_maxrate=2000 / vbv_bufsize=2000 / nal_hrd=none / filler=0 / ip_ratio=1.40 / aq=1:1.00
Language                                 : English
Default                                  : Yes
Forced                                   : No

Audio
ID                                       : 2
Format                                   : LC
Format/Info                              : Advanced Audio Codec Low Complexity
Codec ID                                 : A_AAC-2
Duration                                 : 3 h 14 min
Bit rate                                 : 137 kb/s
Channel(s)                               : 2 channels
Channel layout                           : L R
Sampling rate                            : 48.0 kHz
Frame rate                               : 46.875 FPS (1024 SPF)
Compression mode                         : Lossy
Stream size                              : 191 MiB (10%)
Language                                 : Ukrainian
Default                                  : Yes
Forced                                   : No

Menu
00:00:00.000                             : en:Road to Gdansk (Before Match)
00:51:27.637                             : en:Half 1
01:46:47.765                             : en:Half 2
02:38:07.680                             : en:Road to Gdansk (After Match)
Скріншоти


Бронзовий реліз (на рейтинг впливає 75% завантаженого)
 Трекер:    Зареєстрований   

Завантажити / скачати торрент



відео для новачків



 Зареєстрований:   2021-02-22 16:28
 Розмір:   1.95 GB 
 Оцінка:   9.5/10 (Голосів: 4)
   
misamisk 
Поважний учасник


З нами з: 16.10.17
Востаннє: 05.03.21
Повідомлень: 157

2021-02-22 16:30  
Ну і вже від телеканалу "Футбол" трансляцію виклав, якщо просили.

Додано через 39 секунд:

Цей реліз не означає те, що я повернусь на Толоку із такими активними релізами, як раніше, поки що, на жаль, часу не маю. Також не чекайте від мене подальших релізів єврокубків, буду робити за можливості і, швидше за все, у стандартній якості, як-от цей реліз.

601сан 
VIP


З нами з: 22.05.12
Востаннє: 05.03.21
Повідомлень: 353

2021-02-24 13:05  
misamisk
Не знаю кому як,а мені подобається,якщо є студія до та після матчу.
Дякую.

Ваш часовий пояс: GMT + 2 Години

Нова тема   Відповісти