Фанфан-Тюльпан / Fanfan la Tulipe (2003) 1080p 2xUkr/Fre | Sub Fre

Нові коментарі

Нова тема   Відповісти
Автор Повідомлення
kryk-v.ya. 
Попереджень: 1
Попереджень: 1 


З нами з: 14.02.14
Востаннє: 01.03.21
Повідомлень: 2552

2021-02-21 13:37  
Фанфан-Тюльпан / Fanfan la Tulipe (2003) 1080p 2xUkr/Fre | Sub Fre

Фанфан-Тюльпан / Fanfan la Tulipe (2003) 1080p 2xUkr/Fre | Sub Fre


Жанр: комедія, мелодрама, пригодницький
Країна: Франція



Кінокомпанія: Canal+, Centre National de la Cinématographie (CNC), EuropaCorp
Режисер: Жерар Кравчик
Актори: Венсан Перес, Пенелопа Крус, Дідьє Бурдон, Елен де Фужроль, Мішель Мюллер, Філіпп Дормуа, Жак Франц, Жеральд Ларош, Гійом Гальєнн, Жиль Арбона.

Сюжет:
У прекрасній країні Франції в середині 18-го століття життя було щасливим, жінки доступними, а чоловіки займалися своєю улюбленою справою, тобто війною. Розвага для королів, в якій брав участь також і народ. Щоб уникнути одруження, молодий авантюрист Фанфан, записується в армію Людовика XV-го. Агітуючи Фанфана в рекрути, Аделіна, дочка сержанта, що займається набором солдатів в армію, передбачає хлопцю, що його чекає просування по службі і шлюб з дочкою короля. По дорозі до табору Аквітанського полку Фанфан вступає в сутичку з бандою грабіжників, що напали на карету. Як з'ясовується пізніше в кареті знаходилися мадам де Помпадур і Генрієта, дочка короля. Фанфан розуміє, що передбачення Аделіни вже починає збуватися. Абсурдність військової стратегії, хоробрість Фанфана і маса інших пригод декілька ускладнюють дорогу героя до здійснення передбаченого. З ризиком для власного життя Фанфану удається розкрити підступну змову. Це принесе йому славу, неочікуване кохання і впевненість в тому, що людина може стати творцем своєї долі.


Тривалість: 01:38:26
Якість: 1080р
Відео:
кодек:
розмір кадру: 1920 х 1080
бітрейт: 7396 кб/с

Аудіо # 1:
мова: українська
переклад: багатоголосий закадровий |
кодек: 2.0
бітрейт: 192 кб/с

Аудіо # 2:
мова: українськa
переклад: багатоголосий закадровий |
кодек: 2.0
бітрейт: 192 кб/с

Аудіо # 3:
мова: французька
переклад: оригінал
кодек: 5.1
бітрейт: 384 кб/с

Субтитри:
мова: французька
тип: програмні (м'які)
формат: *.srt
Info
General
Unique ID : 308627976864007821970296041222225224990 (0xE82F9613499BA4B5920B1E17F0A3651E)
Complete name : D:\LOUD\Fanfan la Tulipe (2003) 1080p [UKR_FRE] [Hurtom].
Format :
Format version : Version 4
File size : 5.62 GiB
Duration : 1 h 38 min
Overall bit rate : 8 167 kb/s
Encoded date : UTC 2021-02-23 18:04:39
Writing application : v25.0.0 ('Prog Noir') 64-bit
Writing library : libebml v1.3.6 + v1.4.9
Cover : Yes
Attachments : cover.jpg

Video
ID : 1
Format : AVC
Format/Info : Advanced Video Codec
Format profile : [email protected]
Format settings : CABAC / 3 Ref Frames
Format settings, CABAC : Yes
Format settings, Reference : 3 frames
Codec ID : V_MPEG4/ISO/AVC
Duration : 1 h 38 min
Bit rate : 7 396 kb/s
Width : 1 920 pixels
Height : 1 080 pixels
Display aspect ratio : 16:9
Frame rate mode : Constant
Frame rate : 24.000 FPS
Color space : YUV
Chroma subsampling : 4:2:0
Bit depth : 8 bits
Scan type : Progressive
Bits/(Pixel*Frame) : 0.149
Stream size : 5.09 GiB (91%)
Language : French
Default : Yes
Forced : No

Audio #1
ID : 2
Format : AC-3
Format/Info : Audio Coding 3
Commercial name : Dolby Digital
Codec ID : A_AC3
Duration : 1 h 38 min
Bit rate mode : Constant
Bit rate : 192 kb/s
Channel(s) : 2 channels
Channel layout : L R
Sampling rate : 48.0 kHz
Frame rate : 31.250 FPS (1536 SPF)
Compression mode : Lossy
Delay relative to video : -18 ms
Stream size : 135 MiB (2%)
Title : MVO-2+2, Novy, Trk.Ukraine
Language : Ukrainian
Service kind : Complete Main
Default : Yes
Forced : No

Audio #2
ID : 3
Format : AC-3
Format/Info : Audio Coding 3
Commercial name : Dolby Digital
Codec ID : A_AC3
Duration : 1 h 38 min
Bit rate mode : Constant
Bit rate : 192 kb/s
Channel(s) : 2 channels
Channel layout : L R
Sampling rate : 48.0 kHz
Frame rate : 31.250 FPS (1536 SPF)
Compression mode : Lossy
Delay relative to video : -18 ms
Stream size : 135 MiB (2%)
Title : MVO-NTN, K1
Language : Ukrainian
Service kind : Complete Main
Default : No
Forced : No

Audio #3
ID : 4
Format : AC-3
Format/Info : Audio Coding 3
Commercial name : Dolby Digital
Codec ID : A_AC3
Duration : 1 h 38 min
Bit rate mode : Constant
Bit rate : 384 kb/s
Channel(s) : 6 channels
Channel layout : L R C LFE Ls Rs
Sampling rate : 48.0 kHz
Frame rate : 31.250 FPS (1536 SPF)
Compression mode : Lossy
Delay relative to video : -41 ms
Stream size : 270 MiB (5%)
Title : Original
Language : French
Service kind : Complete Main
Default : No
Forced : No

Text
ID : 5
Format : UTF-8
Codec ID : S_TEXT/UTF8
Codec ID/Info : UTF-8 Plain Text
Duration : 1 h 38 min
Bit rate : 50 b/s
Count of elements : 1589
Stream size : 36.6 KiB (0%)
Title : full
Language : French
Default : Yes
Forced : No


Джерело: &
Особиста оцінка: 10 - без зайвих вагань рекомендую всім!

Велика подяка за відео пану -Star-Lord-,
-за звук панам: Богдану, abodnya, Hulk1987, Neytreenor, Arsenfpu.


Срібний реліз (на рейтинг впливає 50% завантаженого)
 Трекер:    Зареєстрований   

Завантажити / скачати фільм українською



відео для новачків



 Зареєстрований:   2021-02-23 20:58
 Розмір:   5.62 GB 
 Оцінка фільму:   10/10 (Голосів: 4)
   
Інші релізи
   Фанфан-Тюльпан / Fanfan la tulipe (2003) 2xUkr/Fra Arsenfpu  2 / 0   1.68 GB   2016-10-06 20:09 
   Фанфан-Тюльпан / Fanfan la tulipe (2003) Ukr/Fra sokeel  0 / 0   835 MB   2016-10-02 17:29 
   Фанфан-Тюльпан / Fanfan la tulipe (2003) -AVC Ukr/Fra abodnya  3 / 0   1.44 GB   2011-02-20 00:42 
   Фанфан-Тюльпан / Fanfan la tulipe (2003) Ukr/Bel/Fra abodnya  1 / 0   2.18 GB   2009-12-24 20:04 
bot 
робот


З нами з: 30.09.07
Востаннє: 26.05.05
Повідомлень: 27274

2021-02-21 13:37  
Тему перенесено з Фільми в HD до форуму Анонси релізів


kryk-v.ya.

21jumpstreet 
VIP


З нами з: 03.07.12
Востаннє: 01.03.21
Повідомлень: 1708

2021-02-22 09:34  
Було вчора озвучення з ТРК Україна
bot 
робот


З нами з: 30.09.07
Востаннє: 26.05.05
Повідомлень: 27274

2021-02-23 20:57  
Тему перенесено з Анонси релізів до форуму Фільми в HD


kryk-v.ya.

Ваш часовий пояс: GMT + 2 Години

Нова тема   Відповісти