Поворот не туди: Основа (Спадщина) / Wrong Turn: The Foundation (2021) AVC Ukr/Eng | Sub Eng

Нові коментарі

Нова тема   Відповісти
Автор Повідомлення
Anonymous 







2021-02-20 15:19  
Поворот не туди: Основа / Поворот не туди: Спадщина / Wrong Turn: The Foundation (2021) AVC Ukr/Eng | Sub Eng


Поворот не туди: Основа (Спадщина) / Wrong Turn: The Foundation (2021) AVC Ukr/Eng | Sub Eng


Жанр: жахи, трилер
Країна: Німеччина, США Велика, Британія



Кінокомпанія / телеканал: Constantin Films
Режисер: Майк П. Нельсон
Актори: Меттью Модайн, Емма Дюмон, Шарлотта Вега, Дейзі Хед, Білл Сейдж, Валері Джейн Паркер, Адайн Бредлі, Тім Дезарно, Ділан Макте, Деміен Маффей та інші.

Сюжет:
Компанія друзів приїжджає в Гарперс-Феррі, щоб відправитися в похід по Аппалачській стежці. У цих краях вони стикаються з спільнотою людей, які жили в горах ще до Громадянської війни. І які дуже не люблять незнайомців.


Тривалість: 01:50:12
Якість: AVC
Відео:
кодек:
розмір кадру: 1024x430
бітрейт: 1829 кб/с

Аудіо#1:
мова: українська
озвучення: професійне, багатоголосе закадрове | HDrezka Studio (DniproFilm)
кодек: 5.1
бітрейт: 384 кб/с

Аудіо#2:
мова: англійська
озвучення: оригінал
кодек: 5.1
бітрейт: 448 кб/с

Субтитри # 1 (Форсовані, написи та діалоги іншими мовами, ніж англійська):
мова: українська
тип: програмні (м'які)
формат: *.srt
переклад: HDrezka Studio(DniproFilm)

Субтитри # 2 (Повні):
мова: англійська
тип: програмні (м'які)
формат: *.srt
Info

General
Unique ID : 101322396697334876976346760909967054372 (0x4C39FBD93EC254EE7F0DED548B53D624)
Complete name : D:\Wrong Turn.The Foundation (2021) AVC [UKR_ENG] [Hurtom].
Format :
Format version : Version 4 / Version 2
File size : 2.05 GiB
Duration : 1 h 50 min
Overall bit rate : 2 663 kb/s
Movie name : Поворот не туди: Спадщина / Wrong Turn: The Foundation (2021)
Encoded date : UTC 2021-02-20 15:35:58
Writing application : v51.0.0 ('I Wish') 32-bit
Writing library : libebml v1.4.0 + v1.6.2
Cover : Yes
Attachments : cover.jpg

Video
ID : 1
Format : AVC
Format/Info : Advanced Video Codec
Format profile : [email protected]
Format settings, CABAC : Yes
Format settings, RefFrames : 12 frames
Codec ID : V_MPEG4/ISO/AVC
Duration : 1 h 50 min
Bit rate : 1 829 kb/s
Width : 1 024 pixels
Height : 430 pixels
Display aspect ratio : 2.40:1
Frame rate mode : Constant
Frame rate : 23.976 (24000/1001) FPS
Color space : YUV
Chroma subsampling : 4:2:0
Bit depth : 8 bits
Scan type : Progressive
Bits/(Pixel*Frame) : 0.173
Stream size : 1.41 GiB (69%)
Writing library : core 157 r2958 57baac4
Encoding settings : cabac=1 / ref=12 / deblock=1:-3:-3 / analyse=0x3:0x133 / me=umh / subme=11 / psy=1 / psy_rd=1.05:0.05 / mixed_ref=1 / me_range=48 / chroma_me=1 / trellis=2 / 8x8dct=1 / cqm=0 / deadzone=21,11 / fast_pskip=1 / chroma_qp_offset=-3 / threads=10 / lookahead_threads=2 / sliced_threads=0 / nr=0 / decimate=1 / interlaced=0 / bluray_compat=0 / constrained_intra=0 / bframes=12 / b_pyramid=2 / b_adapt=2 / b_bias=0 / direct=3 / weightb=1 / open_gop=0 / weightp=2 / keyint=240 / keyint_min=24 / scenecut=40 / intra_refresh=0 / rc_lookahead=60 / rc=2pass / mbtree=1 / bitrate=1829 / ratetol=1.0 / qcomp=0.60 / qpmin=0 / qpmax=69 / qpstep=4 / cplxblur=20.0 / qblur=0.5 / vbv_maxrate=50000 / vbv_bufsize=62500 / nal_hrd=none / filler=0 / ip_ratio=1.40 / aq=1:0.80
Language : English
Default : Yes
Forced : No
Color range : Limited
Color primaries : BT.709
Matrix coefficients : BT.709

Audio #1
ID : 2
Format : AC-3
Format/Info : Audio Coding 3
Format settings, Endianness : Big
Codec ID : A_AC3
Duration : 1 h 50 min
Bit rate mode : Constant
Bit rate : 384 kb/s
Channel(s) : 6 channels
Channel positions : Front: L C R, Side: L R, LFE
Sampling rate : 48.0 kHz
Frame rate : 31.250 FPS (1536 SPF)
Bit depth : 16 bits
Compression mode : Lossy
Stream size : 303 MiB (14%)
Title : HDrezka Studio (DniproFilm)
Language : Ukrainian
Service kind : Complete Main
Default : Yes
Forced : Yes

Audio #2
ID : 3
Format : AC-3
Format/Info : Audio Coding 3
Format settings, Endianness : Big
Codec ID : A_AC3
Duration : 1 h 50 min
Bit rate mode : Constant
Bit rate : 448 kb/s
Channel(s) : 6 channels
Channel positions : Front: L C R, Side: L R, LFE
Sampling rate : 48.0 kHz
Frame rate : 31.250 FPS (1536 SPF)
Bit depth : 16 bits
Compression mode : Lossy
Stream size : 353 MiB (17%)
Title : Original
Language : English
Service kind : Complete Main
Default : No
Forced : No

Text #1
ID : 4
Format : UTF-8
Codec ID : S_TEXT/UTF8
Codec ID/Info : UTF-8 Plain Text
Duration : 1 h 39 min
Bit rate : 0 b/s
Count of elements : 3
Stream size : 114 Bytes (0%)
Title : Forced
Language : Ukrainian
Default : Yes
Forced : Yes

Text #2
ID : 5
Format : UTF-8
Codec ID : S_TEXT/UTF8
Codec ID/Info : UTF-8 Plain Text
Duration : 1 h 46 min
Bit rate : 44 b/s
Count of elements : 1296
Stream size : 34.9 KiB (0%)
Title : Full
Language : English
Default : No
Forced : No

Menu
00:00:00.000 : :Chapter 01
00:05:22.364 : :Chapter 02
00:14:39.170 : :Chapter 03
00:20:43.826 : :Chapter 04
00:25:05.129 : :Chapter 05
00:32:36.538 : :Chapter 06
00:39:30.952 : :Chapter 07
00:44:12.859 : :Chapter 08
00:48:35.329 : :Chapter 09
00:58:29.381 : :Chapter 10
01:06:07.172 : :Chapter 11
01:14:34.970 : :Chapter 12
01:22:48.130 : :Chapter 13
01:29:33.535 : :Chapter 14
01:38:13.346 : :Chapter 15
01:43:54.061 : :Chapter 16
Скріншоти
Джерело: &


Авторський реліз (завантажувати можна без реєстрації)
 Трекер:    Зареєстрований   

Завантажити / скачати фільм українською



відео для новачків



 Зареєстрований:   2021-02-20 17:45
 Розмір:   2.05 GB 
 Оцінка фільму:   6.8/10 (Голосів: 25)
   
bot 
робот


З нами з: 30.09.07
Востаннє: 26.05.05
Повідомлень: 27274

2021-02-20 17:45  
Тему перенесено з Анонси релізів до форуму Фільми


tilda4334

nazarx 
Частий відвідувач


З нами з: 20.12.19
Востаннє: 21.02.21
Повідомлень: 33

2021-02-21 22:38  
Мда, за перші 6-7 хвилин фільму ми побачили парочку геїв невідомої національності (чи то араб-араб, чи то індус-араб, хз), міжрасову пару (тут класика - біла-чорний) і навіть жіночу силу (підкреслено озвучено факт приниження чувака, бо дівчина робить його чоловічу роботу). І все це запакувалося в один автомобіль - маємо повне бінго Wide grin Wide grin Ще не додивився до кінця, але одиничку за неприховану і, навіть, показову тупість, на імдб я вже поставив.
tpolit 
Попереджень: 1
Попереджень: 1 


З нами з: 10.01.15
Востаннє: 28.02.21
Повідомлень: 685

2021-02-22 00:51  
Які ще жахи-триллер? Це найсмішніше, що я бачив за останні кілька років ))
killer2015 
VIP


З нами з: 30.01.15
Востаннє: 28.02.21
Повідомлень: 376

2021-02-22 13:22  
Мене початок теж мало не вбив) Гидко дивитися на двох голубків. Якби знав про їхню присутність до перегляду, то зовсім не дивився як і Химеру) Перші 2 частини повороту суперові фільми, а далі шлак. Одне тільки радує у фільмі, це головна героїня) 3/10.
Simca 
Частий відвідувач


З нами з: 14.11.11
Востаннє: 28.02.21
Повідомлень: 44

2021-02-22 13:36  
Супер Фільм норм.
bandera21 
Свій


З нами з: 10.11.12
Востаннє: 01.03.21
Повідомлень: 99

2021-02-22 19:38  
Класний фільм, найкращий із всі фільмів Поворот не туди, ще перша частина тоже хороша!

Додано через 5 хвилин 43 секунди:

killer2015
То не дививися на них, фільм основне а не пару хвилин кадру голубків

palmotron 
Свій


З нами з: 27.11.08
Востаннє: 27.02.21
Повідомлень: 106

2021-02-22 22:18  
Хрінь якась...
Jelin 
Новенький


З нами з: 14.09.16
Востаннє: 28.02.21
Повідомлень: 19

2021-02-24 11:50  
Досить шаблонний молодіжний трилер про веселу компанію не в тому місці не в той час. +3 бали за душевну кінцівку.
Roman7Fedorak 
Поважний учасник


З нами з: 30.03.12
Востаннє: 28.02.21
Повідомлень: 160

2021-02-24 13:35  
нє ну покарання темрява - це жесть, а так то фільм шляпа :/
Ваш часовий пояс: GMT + 2 Години

Нова тема   Відповісти