Маленькі Жінки / Little Women (1933) 480p Eng | Sub Ukr

Нові коментарі

Нова тема   Відповісти
Автор Повідомлення
Anonymous 







2021-02-19 15:12  
Маленькі Жінки / Little Women (1933) 480p Eng | Sub Ukr

Маленькі Жінки / Little Women (1933) 480p Eng | Sub Ukr


Жанр: драма, сімейний, романтичний
Країна: США



Кінокомпанія: RKO Radio Pictures
Режисер: Джордж К'юкор
Актори: Кетрін Хепберн, Джоан Беннетт, Джин Паркер, Френсіс Ді, Дуглас Монтгомері

Сюжет:
Хроніка життя групи сестер, що виросли в Америці XIX століття.


Тривалість: 01:55:32
Якість:
Відео:
кодек:
розмір кадру: 638 x 478
бітрейт: 1516 кб/с

Аудіо:
мова: англійська
переклад: оригінал
кодек: 2.0
бітрейт: 89 кб/с

Субтитри:
мова: українська
тип: програмні (м'які)
формат: *.srt
переклад: офіційний, itunes
Скріншоти
















MI
Format :
Format version : Version 4
File size : 1.30 GiB
Duration : 1 h 55 min
Overall bit rate : 1 608 kb/s
Encoded date : UTC 2020-11-23 19:17:06
Writing application : v47.0.0 ('Black Flag') 64-bit
Writing library : libebml v1.3.10 + v1.5.2
Cover : Yes
Attachments : cover.jpg

Video
ID : 1
Format : AVC
Format/Info : Advanced Video Codec
Format profile : [email protected]
Format settings : 2 Ref Frames
Format settings, CABAC : No
Format settings, Reference : 2 frames
Codec ID : V_MPEG4/ISO/AVC
Duration : 1 h 55 min
Bit rate : 1 516 kb/s
Width : 638 pixels
Height : 478 pixels
Display aspect ratio : 4:3
Frame rate mode : Constant
Frame rate : 23.976 FPS
Color space : YUV
Chroma subsampling : 4:2:0
Bit depth : 8 bits
Scan type : Progressive
Bits/(Pixel*Frame) : 0.207
Stream size : 1.22 GiB (94%)
Language : English
Default : Yes
Forced : No
Color range : Limited
Color primaries : BT.709
Transfer characteristics : BT.709
Matrix coefficients : BT.709

Audio
ID : 2
Format : LC
Format/Info : Advanced Audio Codec Low Complexity
Codec ID : A_AAC-2
Duration : 1 h 55 min
Bit rate : 89.4 kb/s
Channel(s) : 2 channels
Channel layout : L R
Sampling rate : 44.1 kHz
Frame rate : 43.066 FPS (1024 SPF)
Compression mode : Lossy
Delay relative to video : -42 ms
Stream size : 73.9 MiB (6%)
Language : English
Default : Yes
Forced : No

Text
ID : 3
Format : UTF-8
Codec ID : S_TEXT/UTF8
Codec ID/Info : UTF-8 Plain Text
Duration : 1 h 53 min
Bit rate : 104 b/s
Count of elements : 1484
Stream size : 86.4 KiB (0%)
Language : Ukrainian
Default : Yes
Forced : No

Menu
00:00:00.000 : en:1.
00:01:18.000 : en:2.
00:03:45.000 : en:3.
00:07:03.000 : en:4.
00:09:24.000 : en:5.
00:15:52.000 : en:6.
00:18:29.000 : en:7.
00:20:35.000 : en:8.
00:23:36.000 : en:9.
00:25:03.000 : en:10.
00:29:59.000 : en:11.
00:36:54.000 : en:12.
00:41:10.000 : en:13.
00:44:38.000 : en:14.
00:48:46.000 : en:15.
00:52:37.000 : en:16.
00:57:38.000 : en:17.
01:00:56.000 : en:18.
01:07:27.000 : en:19.
01:08:58.000 : en:20.
01:13:39.000 : en:21.
01:18:54.000 : en:22.
01:21:31.000 : en:23.
01:24:24.000 : en:24.
01:29:00.000 : en:25.
01:32:37.000 : en:26.
01:37:43.000 : en:27.
01:44:58.000 : en:28.
01:46:16.000 : en:29.
01:48:23.000 : en:30.
01:50:48.000 : en:31.
01:53:08.000 : en:32.
01:55:04.000 : en:33.
Джерело:
Особиста оцінка: 10 - без зайвих вагань рекомендую всім!


Срібний реліз (на рейтинг впливає 50% завантаженого)
 Трекер:    Зареєстрований   

Завантажити / скачати фільм українською



відео для новачків



 Зареєстрований:   2021-02-19 15:12
 Розмір:   1.3 GB 
 Оцінка фільму:   5.5/10 (Голосів: 2)
   
Ваш часовий пояс: GMT + 2 Години

Нова тема   Відповісти