Ліга Європи. 1/16 фіналу / 1-й матч / Динамо Київ (Україна) - Брюгге (Бельгія) / Volia Football 1 HD (18.02.2021) 1080p

Нові коментарі

Нова тема   Відповісти
Автор Повідомлення
Anonymous 







2021-02-19 13:15  

Ліга Європи. 1/16 фіналу / 1-й матч / Динамо Київ (Україна) - Брюгге (Бельгія) / Volia Football 1 HD (18.02.2021) 1080p



Телеканал: Volia Football 1 HD

Опис:
Ліга Європи. 1/16 фіналу / 1-й матч / Динамо Київ (Україна) - Брюгге (Бельгія)
Тривалість:
01:52:12
Якість: 1080p
Відео:
кодек:
розмір кадру: 1920x1080
бітрейт: ~6000 кб/с

Аудіо:
мова: українська
переклад: двоголосий закадровий | Вадим Скічко, Сергій Пейчев |
кодек: 2.0
бітрейт: 192 кб/с
Склади:






Скріншоти:


Info
Код:
General

Complete name                            : EL.2020-21.1-16.Dynamo.Kyiv-Club.Brugge.KV.1080p.mazepa.
Format                                   :
Format version                           : Version 4
File size                                : 4.86 GiB
Duration                                 : 1 h 52 min
Overall bit rate                         : 6 196 kb/s
Movie name                               : EL.2020-21.1-16.Dynamo.Kyiv-Club.Brugge.KV by mazepa.to
Encoded date                             : UTC 2021-02-18 19:27:21
Writing application                      : v51.0.0 ('I Wish') 32-bit
Writing library                          : libebml v1.4.0 + v1.6.2

Video
ID                                       : 1
Format                                   : AVC
Format/Info                              : Advanced Video Codec
Format profile                           : [email protected]
Format settings                          : CABAC / 1 Ref Frames
Format settings, CABAC                   : Yes
Format settings, RefFrames               : 1 frame
Codec ID                                 : V_MPEG4/ISO/AVC
Duration                                 : 1 h 52 min
Bit rate                                 : 6 000 kb/s
Width                                    : 1 920 pixels
Height                                   : 1 080 pixels
Display aspect ratio                     : 16:9
Frame rate mode                          : Constant
Frame rate                               : 25.000 FPS
Color space                              : YUV
Chroma subsampling                       : 4:2:0
Bit depth                                : 8 bits
Scan type                                : Progressive
Bits/(Pixel*Frame)                       : 0.116
Stream size                              : 4.70 GiB (97%)
Language                                 : English
Default                                  : No
Forced                                   : No

Audio
ID                                       : 2
Format                                   : LC
Format/Info                              : Advanced Audio Codec Low Complexity
Codec ID                                 : A_AAC-2
Duration                                 : 1 h 52 min
Bit rate                                 : 192 kb/s
Channel(s)                               : 2 channels
Channel layout                           : L R
Sampling rate                            : 48.0 kHz
Frame rate                               : 46.875 FPS (1024 SPF)
Compression mode                         : Lossy
Stream size                              : 155 MiB (3%)
Language                                 : Ukrainian
Default                                  : Yes
Forced                                   : No

Menu
00:00:00.000                             : :Chapter 1
00:07:13.600                             : :Chapter 2
00:59:12.560                             : :Chapter 3
01:46:12.320                             : :Chapter 4
Подяка за допомогу у створенні релізу : sergiyko і Мазепа торент
Особиста оцінка: 5 - позіхав


Золотий реліз (завантажене не впливає на рейтинг)
 Трекер:    Зареєстрований   

Завантажити / скачати торрент



відео для новачків



 Зареєстрований:   2021-02-19 13:15
 Розмір:   4.86 GB 
 Оцінка:   10/10 (Голосів: 2)
   
601сан 
VIP


З нами з: 22.05.12
Востаннє: 07.03.21
Повідомлень: 353

2021-02-19 14:04  
Гарний гол Буяльського і глядачі на трибунах, от і весь позитив.
staf777 
Відео Гуртом - підтримка та поширення
Відео Гуртом - підтримка та поширення


З нами з: 16.11.16
Востаннє: 07.03.21
Повідомлень: 5116

2021-02-19 14:07  
Цитата:
Особиста оцінка: 5 - позіхав
В мене склалося таке враження що дивився не матч ЛЄ а гру дворових команд ... купа браку у передачах

tilda4334 
Відео Гуртом - фільмокрай
Відео Гуртом - фільмокрай


З нами з: 15.08.14
Востаннє: 07.03.21
Повідомлень: 1437

2021-02-19 17:12  
staf777 написано:
staf777 написано:
В мене склалося таке враження що дивився не матч ЛЄ а гру дворових команд ... купа браку у передачах

Так, погана гра була, пощастило що Буяльский попав.
Та й при такій погоді грати, то звісно труба для команд, тому такий матч вийшов.

601сан 
VIP


З нами з: 22.05.12
Востаннє: 07.03.21
Повідомлень: 353

2021-02-19 20:56  
Щось усе зупинилось і ані руш Wink (1)
Продовження буде?

601сан 
VIP


З нами з: 22.05.12
Востаннє: 07.03.21
Повідомлень: 353

2021-02-21 10:57  
Увікніть країну Wink (1) Wink (1) Wink (1) Дайте довантажити.
601сан 
VIP


З нами з: 22.05.12
Востаннє: 07.03.21
Повідомлень: 353

2021-03-03 11:32  
Anonymous
Завтра по "Футбол 1" о 19:50 «Найрезультативніші матчі»
Ліга Чемпіонів УЄФА. Динамо (К) - Баварія. 1/2 фіналу (1998/99)
Запишіть будь ласка. Дуже хочеться переглянути.

Ваш часовий пояс: GMT + 2 Години

Нова тема   Відповісти