Ваша Честь (Сезон 1) / Your Honor (Season 1) (2020) 1080p Ukr/Eng | Sub Eng

Нові коментарі

Нова тема   Відповісти
Автор Повідомлення
wuzicka 
Свій


З нами з: 08.03.10
Востаннє: 28.02.21
Повідомлень: 104

2021-02-17 13:29  
Ваша Честь (Сезон 1) / Your Honor (Season 1) (2020) 1080p Ukr/Eng | Sub Eng

Ваша Честь (Сезон 1) / Your Honor (Season 1) (2020) 1080p Ukr/Eng | Sub Eng


Жанр: трилер, драма, кримінальний
Країна: США



Кінокомпанія: CBS Television Studios
Режисер: Едвард Бергер, Кларк Джонсон, Єва Серхеуг, Браян Кренстон
Актори: Браян Кренстон, Хантер Дуган, Майкл Стулбарг, Софія Блек-Д'Еліа та інші

Сюжет:
Син впливового та успішного судді збиває мотоцикліста та тікає з місця злочину, в результаті чого сім’я виявляється втягнутою в небезпечну гру з брехні і обману, адже загиблий був сином місцевого кримінального боса


Тривалість: 1 серія: ~50 хв. (цілком серій: 10)
Перелік серій
01. Part One
02. Part Two
03. Part Three
04. Part Four
05. Part Five
06. Part Six
07. Part Seven
08. Part Eight
09. Part Nine
10. Part Ten
Якість:
Відео:
кодек:
розмір кадру: 1920 х 1080
бітрейт: ~ 6196 кб/с

Аудіо # 1:
мова: українська
переклад: багатоголосий закадровий [Dniprofilm]
кодек: 5.1
бітрейт: 384 кб/с

Аудіо # 2:
мова: англійська
переклад: оригінал
кодек: E-C3 5.1
бітрейт: 640 кб/с

Субтитри# 1 (на написи):
мова: українська
тип: програмні (м'які)
формат: *.srt

Субтитри# 2:
мова: англійська
тип: програмні (м'які)
формат: *.srt
Info
General
Unique ID : 259127677864634413532778619083377482469 (0xC2F22CE87327ECADC6A6D12F55FE1AE5)
Complete name : Your Honor. s01. 2020. 1080p\Your Honor.2020.s01e01..1080p.Ukr.Eng.
Format :
Format version : Version 4
File size : 2.87 GiB
Duration : 56 min 55 s
Overall bit rate : 7 222 kb/s
Encoded date : UTC 2021-02-17 10:46:41
Writing application : v53.0.0 ('Fool's Gold') 64-bit
Writing library : libebml v1.4.1 + v1.6.2

Video
ID : 1
Format : AVC
Format/Info : Advanced Video Codec
Format profile : [email protected]
Format settings : CABAC / 4 Ref Frames
Format settings, CABAC : Yes
Format settings, ReFrames : 4 frames
Codec ID : V_MPEG4/ISO/AVC
Duration : 56 min 55 s
Bit rate mode : Constant
Bit rate : 6 196 kb/s
Nominal bit rate : 10 000 kb/s
Width : 1 920 pixels
Height : 1 080 pixels
Display aspect ratio : 16:9
Frame rate mode : Constant
Frame rate : 23.976 (24000/1001) FPS
Color space : YUV
Chroma subsampling : 4:2:0
Bit depth : 8 bits
Scan type : Progressive
Bits/(Pixel*Frame) : 0.125
Stream size : 2.46 GiB (86%)
Default : Yes
Forced : No
Color range : Limited
Color primaries : BT.709
Transfer characteristics : BT.709
Matrix coefficients : BT.709

Audio #1
ID : 2
Format : AC-3
Format/Info : Audio Coding 3
Commercial name : Dolby Digital
Codec ID : A_AC3
Duration : 56 min 55 s
Bit rate mode : Constant
Bit rate : 384 kb/s
Channel(s) : 6 channels
Channel layout : L R C LFE Ls Rs
Sampling rate : 48.0 kHz
Frame rate : 31.250 FPS (1536 SPF)
Bit depth : 16 bits
Compression mode : Lossy
Stream size : 156 MiB (5%)
Title : DD 5.1 @ 384 kbps - DniproFilm
Language : Ukrainian
Service kind : Complete Main
Default : Yes
Forced : Yes

Audio #2
ID : 3
Format : E-AC-3
Format/Info : Enhanced AC-3
Commercial name : Dolby Digital Plus
Codec ID : A_EAC3
Duration : 56 min 55 s
Bit rate mode : Constant
Bit rate : 640 kb/s
Channel(s) : 6 channels
Channel layout : L R C LFE Ls Rs
Sampling rate : 48.0 kHz
Frame rate : 31.250 FPS (1536 SPF)
Compression mode : Lossy
Delay relative to video : 18 ms
Stream size : 261 MiB (9%)
Title : E- @ 640 kbps - Original
Language : English
Service kind : Complete Main
Default : No
Forced : No

Text #1
ID : 4
Format : UTF-8
Codec ID : S_TEXT/UTF8
Codec ID/Info : UTF-8 Plain Text
Duration : 44 min 39 s
Bit rate : 0 b/s
Count of elements : 5
Stream size : 149 Bytes (0%)
Title : Text only
Language : Ukrainian
Default : Yes
Forced : Yes

Text #2
ID : 5
Format : UTF-8
Codec ID : S_TEXT/UTF8
Codec ID/Info : UTF-8 Plain Text
Duration : 52 min 42 s
Bit rate : 50 b/s
Count of elements : 562
Stream size : 19.4 KiB (0%)
Title : SDH
Language : English
Default : No
Forced : No
Скріншоти



Джерело:
Особиста оцінка: 8 - мені сподобалося


Авторський реліз (завантажувати можна без реєстрації)
 Трекер:    Зареєстрований   

Завантажити / скачати серіал українською



відео для новачків



 Зареєстрований:   2021-02-25 17:36
 Розмір:   24.16 GB 
 Оцінка серіалу:   10/10 (Голосів: 4)
   
wuzicka 
Свій


З нами з: 08.03.10
Востаннє: 28.02.21
Повідомлень: 104

2021-02-17 22:22  
серіал вартий перегляду!
Manik 
Частий відвідувач


З нами з: 12.03.09
Востаннє: 01.03.21
Повідомлень: 39

2021-02-25 01:24  
Що зі звуком у 5 серії? Звук передує картинці.
wuzicka 
Свій


З нами з: 08.03.10
Востаннє: 28.02.21
Повідомлень: 104

2021-02-25 17:38  
Manik
Дякую за повідомлення.
перезібрав.
прошу ще раз скачати торрент - проблему зі звуком у 5 серії виправлено

Ваш часовий пояс: GMT + 2 Години

Нова тема   Відповісти