Antony Kalugin - Stellar Gardener (2021) [] | Symphonic Prog / Progressive Rock

Нові коментарі

Нова тема   Відповісти
Останній раз роздавалося kolpavel (2021-04-16)
Автор Повідомлення
kolpavel 
VIP


З нами з: 04.05.14
Востаннє: 16.04.21
Повідомлень: 1395

2021-02-16 00:57  
Antony Kalugin - Stellar Gardener (2021) [] | Symphonic Prog / Progressive Rock

Antony Kalugin - Stellar Gardener (2021) [] | Symphonic Prog / Progressive Rock


Стиль: Symphonic Prog Progressive Rock
Країна, місто: Україна, Харкiв
Сайти: Офіційний сайт
Видавець: Caerllysi Music
Виконавці:
Антоній Калугін - всі інструменти, голоси, програмування та аранжування.
Ольга Ростовська - додатковий вокал.
Пісні:
    1. Stellar - 20:04
    2. Gardener - 20:53
    3. Stellar Castle - 03:52
    4. Stellar Garden - 04:38
    5. Stellar Age - 03:42
    6. Stellar Heart - 02:06

Тривалість: 00:55:17
Мова: iнструментальнi композицiї
Аудіо-кодек:
Бітрейт: 438-941 кб/с
Джерело: трекер
Додаткова інформація:
лог DRM
foobar2000 1.4.2 / Dynamic Range Meter 1.1.1
log date: 2021-02-15 19:22:21

--------------------------------------------------------------------------------
Analyzed: Antony Kalugin / Stellar Gardener
--------------------------------------------------------------------------------

DR Peak RMS Duration Track
--------------------------------------------------------------------------------
DR10 0.00 dB -12.99 dB 20:04 01-Stellar
DR10 0.00 dB -12.30 dB 20:53 02-Gardener
DR9 0.00 dB -12.06 dB 3:53 03-Stellar Castle
DR10 -0.02 dB -11.97 dB 4:38 04-Stellar Garden
DR9 0.00 dB -10.23 dB 3:42 05-Stellar Age
DR13 -2.41 dB -19.88 dB 2:07 06-Stellar Heart
--------------------------------------------------------------------------------

Number of tracks: 6
Official DR value: DR10

Samplerate: 44100 Hz
Channels: 2
Bits per sample: 16
Bitrate: 438 kbps
Codec:
================================================================================
лог якостi
-----------------------

DON'T MODIFY THIS FILE

-----------------------

PERFORMER: auCDtect Task Manager, ver. 1.6.0 RC1 build 1.6.0.1
Copyright (c) 2008-2010 y-soft. All rights reserved
http://y-soft.org

ANALYZER: auCDtect: CD records authenticity detector, version 0.8.2
Copyright (c) 2004 Oleg Berngardt. All rights reserved.
Copyright (c) 2004 Alexander Djourik. All rights reserved.

FILE: 06 - Stellar Heart.
Size: 7018105 Hash: 8D97466CE68875E86BF14A2C8EC7996B Accuracy: -m40
Conclusion: CDDA 99%
Signature: 95FDDEB0A1EF31D54E9588A07C0EC8051B7A0C62
FILE: 05 - Stellar Age.
Size: 26198378 Hash: 17EAEB3D74D458666866262DBAB90784 Accuracy: -m40
Conclusion: CDDA 100%
Signature: 92EAC42893E2ADBEDF2DD933BD391B81A4484E2B
FILE: 04 - Stellar Garden.
Size: 31006149 Hash: F2A382D78273EEE302390463BFCFA7F1 Accuracy: -m40
Conclusion: CDDA 100%
Signature: 2A431EA2386754DD50FF6C19CAF36E61FA7896CC
FILE: 03 - Stellar Castle.
Size: 23947562 Hash: E4CD704DA2F32933431CA2EACD2550F8 Accuracy: -m40
Conclusion: CDDA 100%
Signature: E3082D494A9913E20C983E1ECC4D6382ED939B21
FILE: 02 - Gardener.
Size: 133487652 Hash: 4A6DD0BED71E8B5F2E1A8A58FC6B6740 Accuracy: -m40
Conclusion: CDDA 100%
Signature: 7BAA7BE54EBE2FC64CF8535B691327146231012E
FILE: 01 - Stellar.
Size: 124980682 Hash: A14C5BDE833AEC71EB6AAB81B94A2FB7 Accuracy: -m40
Conclusion: CDDA 100%
Signature: 69854C1BC93F8949013BBF44303A6F9CA488A689


Якщо Ви справді бажаєте підтримати українське - після прослуховування, якщо музика вам сподобалась, придбайте ліцензійний диск. Підтримаймо вітчизняних виконавців!


Срібний реліз (на рейтинг впливає 50% завантаженого)
 Трекер:    Зареєстрований   

Завантажити / скачати українську музику



відео для новачків



 Зареєстрований:   2021-02-16 01:19
 Розмір:   331 MB 
 Оцінка музики:   10/10 (Голосів: 3)
   
Ваш часовий пояс: GMT + 2 Години

Нова тема   Відповісти