Гаваї 5.0 (Сезон 4) / Hawaii Five-0 (Season 4) (2013-2014) 720p Ukr/Eng | sub Eng

Нові коментарі

Нова тема   Відповісти
Автор Повідомлення
Anonymous 







2021-02-15 23:08  
Гаваї 5.0 (Сезон 4) / Hawaii Five-0 (Season 4) (2013-2014) 720p Ukr/Eng | sub Eng

Гаваї 5.0 (Сезон 4) / Hawaii Five-0 (Season 4) (2013-2014) 720p Ukr/Eng | sub Eng


Жанр: бойовик, кримінал, драма
Країна: США



Кінокомпанія: K/O Paper Products, 101st Street Productions, CBS Productions
Режисер: Леонард Фрімен (Leonard Freeman), Пітер М. Леньков (Peter M. Lenkov), Алекс Курцман (Alex Kurtzman)
Актори: Алекс О'Лафлін (Alex O'Loughlin), Скотт Каан (Scott Caan), Деніел Дае Кім (Daniel Dae Kim), Мішель Борт (Michelle Borth) та інші

Сюжет:
Райські острови не такі безпечні, як здаються на перший погляд. Завдання нового спецпідрозділу 5.0 - знищити злочинність на Гаваях. Його очолив колишній морський офіцер, який також намагається розкрити таємницю смерті батька.


Тривалість: 1 серія: ~43 хв. (цілком серій: 22)
Перелік серій
01) We Need Each Another
02) Fish Out of Water
03) The Truth Within
04) From This Day Forward
05) Fallen Hero
06) Broken
07) In Deep
08) Reluctant Partners
09) Happy Thanksgiving
10) Honor Thy Father
11) Keepsake
12) Now and Then
13) The Favor
14) Sins of the Father
15) Buried Secrets
16) Fire in the Sky
17) Beneath the Surface
18) Reunited
19) Blood Brothers
20) Those Among Us
21) Fair Winds and Following Seas
22) Family Comes First
Якість:
Відео:
кодек:
розмір кадру: 1280 x 720
бітрейт: ~4000 кб/с

Аудіо # 1:
мова: українська
переклад: багатоголосий закадровий
кодек: 2.0
бітрейт: 192 кб/с

Аудіо # 2:
мова: англійська
переклад: оригінал
кодек: 5.1
бітрейт: 384 кб/с

Джерело озвучення:


Субтитри:
мова: англійська
тип: програмні (м'які)
формат: *.srt
Info
General
Unique ID : 279324191091392306130472718086801196001 (0xD223E1E3C070D7F98EE462BA46B803E1)
Complete name : F:\Support\series\Hawaii Five-0 [, 720p, Ukr, Eng]\Season 4\Hawaii Five-0. s04e01. We Need Each Another.
Format :
Format version : Version 4
File size : 1.41 GiB
Duration : 43 min 16 s
Overall bit rate : 4 651 kb/s
Encoded date : UTC 2021-02-13 20:46:07
Writing application : v53.0.0 ('Fool's Gold') 64-bit
Writing library : libebml v1.4.1 + v1.6.2

Video
ID : 1
Format : AVC
Format/Info : Advanced Video Codec
Format profile : [email protected]
Format settings : 2 Ref Frames
Format settings, CABAC : No
Format settings, Reference : 2 frames
Codec ID : V_MPEG4/ISO/AVC
Duration : 43 min 16 s
Bit rate : 4 072 kb/s
Width : 1 280 pixels
Height : 720 pixels
Display aspect ratio : 16:9
Frame rate mode : Constant
Frame rate : 23.976 (23976/1000) FPS
Color space : YUV
Chroma subsampling : 4:2:0
Bit depth : 8 bits
Scan type : Progressive
Bits/(Pixel*Frame) : 0.184
Stream size : 1.23 GiB (88%)
Language : English
Default : Yes
Forced : No
Color range : Limited
Color primaries : BT.709
Transfer characteristics : BT.709
Matrix coefficients : BT.709

Audio #1
ID : 2
Format : AC-3
Format/Info : Audio Coding 3
Commercial name : Dolby Digital
Codec ID : A_AC3
Duration : 43 min 16 s
Bit rate mode : Constant
Bit rate : 192 kb/s
Channel(s) : 2 channels
Channel layout : L R
Sampling rate : 48.0 kHz
Frame rate : 31.250 FPS (1536 SPF)
Compression mode : Lossy
Stream size : 59.4 MiB (4%)
Title : Сонце
Language : Ukrainian
Service kind : Complete Main
Default : Yes
Forced : No

Audio #2
ID : 3
Format : AC-3
Format/Info : Audio Coding 3
Commercial name : Dolby Digital
Codec ID : A_AC3
Duration : 43 min 16 s
Bit rate mode : Constant
Bit rate : 384 kb/s
Channel(s) : 6 channels
Channel layout : L R C LFE Ls Rs
Sampling rate : 48.0 kHz
Frame rate : 31.250 FPS (1536 SPF)
Compression mode : Lossy
Stream size : 119 MiB (8%)
Language : English
Service kind : Complete Main
Default : No
Forced : No

Text
ID : 4
Format : UTF-8
Codec ID : S_TEXT/UTF8
Codec ID/Info : UTF-8 Plain Text
Duration : 42 min 41 s
Bit rate : 69 b/s
Count of elements : 747
Stream size : 21.6 KiB (0%)
Language : English
Default : No
Forced : No
Скріншоти
Джерело:
Особиста оцінка: 0 - не дивився





Бронзовий реліз (на рейтинг впливає 75% завантаженого)
 Трекер:    Зареєстрований   

Завантажити / скачати серіал українською



відео для новачків



 Зареєстрований:   2021-02-15 23:08
 Розмір:   30.99 GB 
 Оцінка серіалу:   10/10 (Голосів: 1)
   
Pegass 
VIP


З нами з: 17.12.09
Востаннє: 24.02.21
Повідомлень: 1154

2021-02-17 22:50  
Інші сезони будуть?
Anonymous 







2021-02-17 22:54  
Pegass написано:
Інші сезони будуть?

Поки не планую робити.

Ваш часовий пояс: GMT + 2 Години

Нова тема   Відповісти