Бездушні (Сезон 1) / Desalma (Season 1) (2020) 1080p Ukr/Por | sub Por

Нові коментарі

Нова тема   Відповісти
Автор Повідомлення
Anonymous 







2021-02-15 14:55  
Бездушні (Сезон 1) / Desalma (Season 1) (2020) 1080p Ukr/Por | sub Por

Бездушні (Сезон 1) / Desalma (Season 1) (2020) 1080p Ukr/Por | sub Por


Жанр: драма, містика, детектив
Країна: Бразилія



Кінокомпанія: Central Globo de Produção
Режисер: Ана Паула Майя
Актори: Касія Кіс, Клаудія Абреу, Марія Рібейро та інші

Сюжет:
Історія починається з жінки, яка втратила свого чоловіка. Перебуваючи у депресії, героїня вирішує забрати доньку та переїхати в інше місто. Маленьке містечко Брігіда видається ідеальним варіантом – воно володіє якоюсь своєю атмосферою і неповторним духом. Згідно з сюжетом, там проживає українська діаспора. Під час святкування Івана Купала у 1988 році у місті зникла молода дівчина Галина, після чого традиційні святкування заборонили. Місто готується повернути святкування Івана Купала 30 років, але відбувається щось дивне – відродження колишніх традицій призводить до непередбачуваних ситуацій.


Тривалість: 1 серія: ~ 46 хв. (цілком серій: 10)
Перелік серій
Desalma. Season 1, Episode 01. Roman
Desalma. Season 1, Episode 02. Fôlego
Desalma. Season 1, Episode 03. Submersos
Desalma. Season 1, Episode 04. Inocentes
Desalma. Season 1, Episode 05. Tradições
Desalma. Season 1, Episode 06. Revelações
Desalma. Season 1, Episode 07. Revelações
Desalma. Season 1, Episode 08. Ivana Kupala
Desalma. Season 1, Episode 09. O Retorno
Desalma. Season 1, Episode 10. Desalma
Якість:
Відео:
кодек:
розмір кадру: 1920 х 1080
бітрейт: 4552 кб/с

Аудіо # 1:
мова: українська
переклад: багатоголосий закадровий
кодек: 2.0
бітрейт: 192 кб/с

Аудіо # 2:
мова: португальська / українська
переклад: оригінал
кодек: 2.0
бітрейт: 128 кб/с

Джерело озвучення:
DniproFilm

Субтитри:
мова: українська [Forced]
тип: програмні (м'які)
формат: *.srt

Субтитри:
мова: португальська [Full]
тип: програмні (м'які)
формат: *.srt

Субтитри:
мова: португальська
тип: вбудовані (жорсткі) на українську мову
Info
Код:
General
Unique ID                                : 88588057584768406879980889520704565857 (0x42A57074C4FB9EC4B039D1F1C79BB261)
Complete name                            : Desalma S01E01 (2020) 1080p [Ukr_Por] [Hurtom].
Format                                   :
Format version                           : Version 4
File size                                : 1.58 GiB
Duration                                 : 46 min 17 s
Overall bit rate                         : 4 875 kb/s
Movie name                               : Бездушні (Сезон 1, серія 1) (2020)
Encoded date                             : UTC 2021-02-14 22:04:28
Writing application                      : v52.0.0 ('Secret For The Mad') 64-bit
Writing library                          : libebml v1.4.1 + v1.6.2
Cover                                    : Yes
Attachments                              : cover.jpg

Video
ID                                       : 1
Format                                   : AVC
Format/Info                              : Advanced Video Codec
Format profile                           : [email protected]
Format settings                          : CABAC / 4 Ref Frames
Format settings, CABAC                   : Yes
Format settings, Reference frames        : 4 frames
Codec ID                                 : V_MPEG4/ISO/AVC
Duration                                 : 46 min 17 s
Bit rate                                 : 4 552 kb/s
Width                                    : 1 920 pixels
Height                                   : 1 080 pixels
Display aspect ratio                     : 16:9
Frame rate mode                          : Constant
Frame rate                               : 23.976 (24000/1001) FPS
Color space                              : YUV
Chroma subsampling                       : 4:2:0
Bit depth                                : 8 bits
Scan type                                : Progressive
Bits/(Pixel*Frame)                       : 0.092
Stream size                              : 1.47 GiB (93%)
Default                                  : Yes
Forced                                   : No

Audio #1
ID                                       : 2
Format                                   : AC-3
Format/Info                              : Audio Coding 3
Commercial name                          : Dolby Digital
Codec ID                                 : A_AC3
Duration                                 : 46 min 17 s
Bit rate mode                            : Constant
Bit rate                                 : 192 kb/s
Channel(s)                               : 2 channels
Channel layout                           : L R
Sampling rate                            : 48.0 kHz
Frame rate                               : 31.250 FPS (1536 SPF)
Compression mode                         : Lossy
Stream size                              : 63.6 MiB (4%)
Language                                 : Ukrainian
Service kind                             : Complete Main
Default                                  : Yes
Forced                                   : Yes

Audio #2
ID                                       : 3
Format                                   : LC
Format/Info                              : Advanced Audio Codec Low Complexity
Codec ID                                 : A_AAC-2
Duration                                 : 46 min 17 s
Bit rate                                 : 128 kb/s
Channel(s)                               : 2 channels
Channel layout                           : L R
Sampling rate                            : 44.1 kHz
Frame rate                               : 43.066 FPS (1024 SPF)
Compression mode                         : Lossy
Stream size                              : 42.4 MiB (3%)
Language                                 : Portuguese
Default                                  : No
Forced                                   : No

Text #1
ID                                       : 4
Format                                   : UTF-8
Codec ID                                 : S_TEXT/UTF8
Codec ID/Info                            : UTF-8 Plain Text
Duration                                 : 44 min 29 s
Bit rate                                 : 1 b/s
Count of elements                        : 16
Stream size                              : 603 Bytes (0%)
Title                                    : Forced
Language                                 : Ukrainian
Default                                  : Yes
Forced                                   : Yes

Text #2
ID                                       : 5
Format                                   : UTF-8
Codec ID                                 : S_TEXT/UTF8
Codec ID/Info                            : UTF-8 Plain Text
Duration                                 : 46 min 17 s
Bit rate                                 : 58 b/s
Count of elements                        : 787
Stream size                              : 19.7 KiB (0%)
Language                                 : Portuguese
Default                                  : No
Forced                                   : No

Скріншоти





Джерело:


Авторський реліз (завантажувати можна без реєстрації)
 Трекер:    Зареєстрований   

Завантажити / скачати серіал українською



відео для новачків



 Зареєстрований:   2021-02-15 14:55
 Розмір:   14.67 GB 
 Оцінка серіалу:   8.3/10 (Голосів: 6)
   
wuzicka 
Свій


З нами з: 08.03.10
Востаннє: 01.03.21
Повідомлень: 104

2021-02-15 15:06  
дякую за 1080!
Ваш часовий пояс: GMT + 2 Години

Нова тема   Відповісти