[збір коштів] Кларіс (Сезон 1, Серія 1) / Clarice (Season 1, Episode 1) (2021) AVC Ukr/Eng

Нові коментарі

Нова тема   Відповісти
Автор Повідомлення
Цікава ідея 
VIP


З нами з: 25.12.11
Востаннє: 28.02.21
Повідомлень: 819

2021-02-13 22:41  
AVC | 1080p

[збір коштів] Кларіс (Сезон 1, Серія 1) / Clarice (Season 1, Episode 1) (2021) AVC Ukr/Eng


[збір коштів] Кларіс (Сезон 1, Серія 1) / Clarice (Season 1, Episode 1) (2021) AVC Ukr/Eng


На озвучення серіалу проходить ЗБІР КОШТІВ


Жанр: детектив, триллер, кримінал, драма
Країна: США



Режисери: Дімейн Девіс, Майа Врвіло
Актори: Ребекка Брідс, Рауль Бенеджа, Майа Макнейр, Кетлін Кромвел, Еріка Андерсон, Джейн Аткінсон, Майкл Кулдіц та інші.

Сюжет:
Вашингтон, 1993 рік. Першокласний агент ФБР Кларіса Старлінг розслідує справи про сексуальні зґвалтування і серійні вбивства, що відбуваються на тлі політичних інтриг. Хоробрість, енергійність та ініціативність жінки привертає божевільних і справжніх чудовиськ в людських обличчях. Але за потужною силою Кларіси ховаються складне дитинство і сімейні таємниці, з якими їй також доведеться розібратися.


Перекладено та озвучено ТО "Цікава Ідея"
Український трейлер в нашому озвученні:

Тривалість: 1 серія: ~ 43 хв. (цілком серій: 1/10)
Перелік серій:

01. The Silence Is Over
02. —
03. —
04. —
05. —
06. —
07. —
08. —
09. —
10. —
Якість: AVC
Відео:
кодек:
розмір кадру: 720 x 400
бітрейт: ~ 1100 кб/с

Аудіо # 1:
мова: українська | "Цікава Ідея"
переклад: професійний багатоголосий закадровий
кодек: 5.1
бітрейт: 448 кб/с

Аудіо # 2:
мова: англійська
переклад: оригінал
кодек: E- 5.1
бітрейт: 640 кб/с
Info
Код:
Format                                   :
Format version                           : Version 4
File size                                : 665 MiB
Duration                                 : 42 min 43 s
Overall bit rate                         : 2 175 kb/s
Movie name                               : Кларіс / Clarice - S01E01 (2021) AVC [Ukr.Eng] [Цікава Ідея]
Encoded date                             : UTC 2021-02-13 19:14:51
Writing application                      : v50.0.0 ('Awakenings') 64-bit
Writing library                          : libebml v1.4.0 + v1.6.2
Cover                                    : Yes
Attachments                              : cover.jpg

Video
ID                                       : 1
Format                                   : AVC
Format/Info                              : Advanced Video Codec
Format profile                           : [email protected]
Format settings                          : CABAC / 5 Ref Frames
Format settings, CABAC                   : Yes
Format settings, Reference frames        : 5 frames
Codec ID                                 : V_MPEG4/ISO/AVC
Duration                                 : 42 min 36 s
Bit rate                                 : 1 100 kb/s
Width                                    : 720 pixels
Height                                   : 400 pixels
Display aspect ratio                     : 16:9
Frame rate mode                          : Constant
Frame rate                               : 24.000 FPS
Color space                              : YUV
Chroma subsampling                       : 4:2:0
Bit depth                                : 8 bits
Scan type                                : Progressive
Bits/(Pixel*Frame)                       : 0.159
Stream size                              : 331 MiB (50%)
Writing library                          : core 152 r2851M ba24899
Encoding settings                        : cabac=1 / ref=5 / deblock=1:-1:-1 / analyse=0x3:0x113 / me=umh / subme=9 / psy=1 / psy_rd=1.00:0.15 / mixed_ref=1 / me_range=16 / chroma_me=1 / trellis=2 / 8x8dct=1 / cqm=0 / deadzone=21,11 / fast_pskip=1 / chroma_qp_offset=-3 / threads=12 / lookahead_threads=1 / sliced_threads=0 / nr=0 / decimate=1 / interlaced=0 / bluray_compat=0 / constrained_intra=0 / bframes=3 / b_pyramid=2 / b_adapt=2 / b_bias=0 / direct=3 / weightb=1 / open_gop=0 / weightp=2 / keyint=250 / keyint_min=24 / scenecut=40 / intra_refresh=0 / rc_lookahead=50 / rc=abr / mbtree=1 / bitrate=1100 / ratetol=1.0 / qcomp=0.60 / qpmin=0 / qpmax=69 / qpstep=4 / ip_ratio=1.40 / aq=1:1.00
Default                                  : Yes
Forced                                   : No

Audio #1
ID                                       : 2
Format                                   : AC-3
Format/Info                              : Audio Coding 3
Commercial name                          : Dolby Digital
Codec ID                                 : A_AC3
Duration                                 : 42 min 43 s
Bit rate mode                            : Constant
Bit rate                                 : 448 kb/s
Channel(s)                               : 6 channels
Channel layout                           : L R C LFE Ls Rs
Sampling rate                            : 48.0 kHz
Frame rate                               : 31.250 FPS (1536 SPF)
Compression mode                         : Lossy
Stream size                              : 137 MiB (21%)
Title                                    : Цікава Ідея
Language                                 : Ukrainian
Service kind                             : Complete Main
Default                                  : Yes
Forced                                   : Yes

Audio #2
ID                                       : 3
Format                                   : E-AC-3
Format/Info                              : Enhanced AC-3
Commercial name                          : Dolby Digital Plus
Codec ID                                 : A_EAC3
Duration                                 : 42 min 43 s
Bit rate mode                            : Constant
Bit rate                                 : 640 kb/s
Channel(s)                               : 6 channels
Channel layout                           : L R C LFE Ls Rs
Sampling rate                            : 48.0 kHz
Frame rate                               : 31.250 FPS (1536 SPF)
Compression mode                         : Lossy
Stream size                              : 196 MiB (29%)
Title                                    : Original
Language                                 : English
Service kind                             : Complete Main
Default                                  : No
Forced                                   : No
Скріншоти



Перекладено та озвучено творчим об'єднанням:


Авторський реліз (завантажувати можна без реєстрації)
 Трекер:    Зареєстрований   

Завантажити / скачати серіал українською



відео для новачків



 Зареєстрований:   2021-02-14 17:16
 Розмір:   669 MB 
 Оцінка серіалу:   9/10 (Голосів: 10)
   
Цікава ідея 
VIP


З нами з: 25.12.11
Востаннє: 28.02.21
Повідомлень: 819

2021-02-13 22:43  
Друзі, ми переклали та озвучили 1 СЕРІЮ!
Підтримайте озвучення наступних серій,
реквізити в описі релізу.


Бажаємo всім приємного перегляду!

allllle 
Відео Гуртом - підтримка та поширення
Відео Гуртом - підтримка та поширення


З нами з: 03.10.09
Востаннє: 27.02.21
Повідомлень: 35

2021-02-14 09:40  
У мене розсинхронізація звуку Sad (1)
Цікава ідея 
VIP


З нами з: 25.12.11
Востаннє: 28.02.21
Повідомлень: 819

2021-02-14 10:42  
allllle написано:
У мене розсинхронізація звуку

Дякуємо, виправимо!

Цікава ідея 
VIP


З нами з: 25.12.11
Востаннє: 28.02.21
Повідомлень: 819

2021-02-14 17:15  
Прохання перезавантажити 1 СЕРІЮ!

Усунено розсинхрон.

Dracula87 
Новенький


З нами з: 04.01.10
Востаннє: 28.02.21
Повідомлень: 21

2021-02-14 17:20  
Цитата:
Кларіса Старлінг


Щось матиме спільне з світом Ганнібала?

Masanchick 
VIP


З нами з: 08.04.11
Востаннє: 01.03.21
Повідомлень: 1188

2021-02-14 17:22  
Цитата:
Щось матиме спільне з світом Ганнібала?

так
Цитата:
дія серіалу відбуватиметься в 1993 році, через рік після подій у "Мовчанні ягнят".

waldi-hurtom 
VIP


З нами з: 07.10.12
Востаннє: 28.02.21
Повідомлень: 1281

2021-02-22 16:34  
Зідрати шкіру з сімох дівчат одразу? Ганібал відпочиває. Бляха, хто таке дивиться? 1 з 10.
Ваш часовий пояс: GMT + 2 Години

Нова тема   Відповісти