Всім хлопцям: З любов'ю / To All the Boys: Always and Forever (2021) 1080p Eng | sub Ukr, Eng

Нові коментарі

Нова тема   Відповісти
Автор Повідомлення
killer2015 
VIP


З нами з: 30.01.15
Востаннє: 28.02.21
Повідомлень: 376

2021-02-12 11:44  
Всім хлопцям: З любов'ю / To All the Boys: Always and Forever (2021) 1080p Eng | sub Ukr, Eng

Всім хлопцям: З любов'ю / To All the Boys: Always and Forever (2021) 1080p Eng | sub Ukr, Eng


Жанр: Мелодрама, комедія
Країна: США



Кінокомпанія: Ace Entertainment, All The Boys Productions
Режисер: Майкл Фімоньярі
Актори: Ной Сентінео, Лана Кондор, Джанела Перріш, Мадлен Артур, Сарайю Блю, Ліза Дурупт, Емілія Баранак, Момона Тамада, Кайла Дорксен

Сюжет:
Лара Джин Кові готується до закінчення старшої школи і до дорослого життя. Але кілька доленосних подорожей змушують її переосмислити те, якими будуть її відносини з сім'єю, друзями і Пітером після випускного.


Тривалість: 01:55:59
Якість: 1080p
Відео:
кодек:
розмір кадру: 1920x1080
бітрейт: 4 020 кб/с

Аудіо:
мова: англійська
переклад: оригінал
кодек: E- 5.1
бітрейт: 768 кб/с

Субтитри #1:
мова: українська ( офіційні: Тарас Малкович) + окремим файлом
тип: програмні (м'які)
формат: *.srt

Субтитри #2:
мова: англійська
тип: програмні (м'які)
формат: *.srt
МІ
General
Unique ID : 263475349911681073533652403875643849108 (0xC63781B08E57A8108360E98C69AAF994)
Complete name : G:\Фільми\To All the Boys Always and Forever (2021)\To.All.the.Boys.Always.and.Forever.2021.NF..1080p.seleZen_.
Format :
Format version : Version 4
File size : 2.82 GiB
Duration : 1 h 55 min
Overall bit rate mode : Variable
Overall bit rate : 3 480 kb/s
Movie name : To.All.the.Boys.Always.and.Forever.2021 from seleZen
Encoded date : UTC 2021-02-12 09:41:14
Writing application : v47.0.0 ('Black Flag') 64-bit
Writing library : libebml v1.3.10 + v1.5.2

Video
ID : 1
Format : AVC
Format/Info : Advanced Video Codec
Format profile : [email protected]
Format settings : CABAC / 3 Ref Frames
Format settings, CABAC : Yes
Format settings, Reference frames : 3 frames
Codec ID : V_MPEG4/ISO/AVC
Duration : 1 h 55 min
Bit rate mode : Variable
Bit rate : 2 710 kb/s
Nominal bit rate : 4 020 kb/s
Maximum bit rate : 6 030 kb/s
Width : 1 920 pixels
Height : 1 080 pixels
Display aspect ratio : 16:9
Frame rate mode : Constant
Frame rate : 23.976 (24000/1001) FPS
Color space : YUV
Chroma subsampling : 4:2:0
Bit depth : 8 bits
Scan type : Progressive
Bits/(Pixel*Frame) : 0.055
Stream size : 2.20 GiB (78%)
Writing library : core 148 r2722 1b0121b
Encoding settings : cabac=1 / ref=3 / deblock=1:0:0 / analyse=0x1:0x111 / me=umh / subme=10 / psy=1 / psy_rd=1.00:0.00 / mixed_ref=1 / me_range=24 / chroma_me=1 / trellis=2 / 8x8dct=0 / cqm=0 / deadzone=21,11 / fast_pskip=1 / chroma_qp_offset=-2 / threads=8 / lookahead_threads=1 / sliced_threads=0 / nr=0 / decimate=1 / interlaced=0 / bluray_compat=0 / stitchable=1 / constrained_intra=0 / bframes=2 / b_pyramid=0 / b_adapt=2 / b_bias=0 / direct=3 / weightb=1 / open_gop=0 / weightp=2 / keyint=250 / keyint_min=23 / scenecut=0 / intra_refresh=0 / rc_lookahead=48 / rc=2pass / mbtree=1 / bitrate=4020 / ratetol=1.0 / qcomp=0.50 / qpmin=6 / qpmax=51 / qpstep=4 / cplxblur=20.0 / qblur=0.5 / vbv_maxrate=6030 / vbv_bufsize=8040 / nal_hrd=vbr / filler=0 / ip_ratio=1.40 / aq=1:1.00
Language : English
Default : Yes
Forced : No

Audio
ID : 2
Format : E-AC-3 JOC
Format/Info : Enhanced AC-3 with Joint Object Coding
Commercial name : Dolby Digital Plus with Dolby Atmos
Codec ID : A_EAC3
Duration : 1 h 55 min
Bit rate mode : Constant
Bit rate : 768 kb/s
Channel(s) : 6 channels
Channel layout : L R C LFE Ls Rs
Sampling rate : 48.0 kHz
Frame rate : 31.250 FPS (1536 SPF)
Compression mode : Lossy
Stream size : 637 MiB (22%)
Title : English
Language : English
Service kind : Complete Main
Default : No
Forced : No
Complexity index : 16
Number of dynamic objects : 15
Bed channel count : 1 channel
Bed channel configuration : LFE

Text #1
ID : 3
Format : UTF-8
Codec ID : S_TEXT/UTF8
Codec ID/Info : UTF-8 Plain Text
Duration : 1 h 48 min
Bit rate : 93 b/s
Count of elements : 1378
Stream size : 73.8 KiB (0%)
Title : Ukrainian
Language : Ukrainian
Default : No
Forced : No

Text #2
ID : 4
Format : UTF-8
Codec ID : S_TEXT/UTF8
Codec ID/Info : UTF-8 Plain Text
Duration : 1 h 54 min
Bit rate : 100 b/s
Count of elements : 1813
Stream size : 84.0 KiB (0%)
Title : English
Language : English
Default : No
Forced : No
Скріншоти




Джерело: seleZen
Особиста оцінка: 0 - не дивився


 Трекер:    Зареєстрований   

Завантажити / скачати фільм українською



відео для новачків



 Зареєстрований:   2021-02-12 11:44
 Розмір:   2.82 GB 
 Оцінка фільму:   10/10 (Голосів: 2)
   
killer2015 
VIP


З нами з: 30.01.15
Востаннє: 28.02.21
Повідомлень: 376

2021-02-12 11:45  

Neznauskas-13 
Новенький


З нами з: 09.05.12
Востаннє: 21.02.21
Повідомлень: 7

2021-02-14 13:49  
Гарний і легкий фільм!
P.S. Нацикам не дивитись, у них пердаки порве через те, що в фільмі ідеться про кохання людей різних рас.

Ваш часовий пояс: GMT + 2 Години

Нова тема   Відповісти