Розкажи мені казку (Сезон 2) / Tell Me a Story (Season 2) (2019-2020) 720p Ukr/Eng

Нові коментарі

Нова тема   Відповісти
Останній раз роздавалося Uwe (2021-02-12)
Автор Повідомлення
DniproFilm 
VIP


З нами з: 10.10.18
Востаннє: 24.02.21
Повідомлень: 459

2021-02-11 18:52  
Розкажи мені казку (Сезон 2) / Tell Me a Story (Season 2) (2019-2020) 720p Ukr/Eng

Розкажи мені казку (Сезон 2) / Tell Me a Story (Season 2) (2019-2020) 720p Ukr/Eng


Жанр: трилер
Країна: США



Кінокомпанія / телеканал: CBS
Режисер: Ліз Фрідлендер, Марк Тондерай
Актори/ролі озвучують: Кріс Брочу, Остін Роберт Батлер, Даніель Кемпбелл, Кім Кетролл, Забріна Гевара, Сем Джагер, Стерлінг Найт, Біллі Магнуссен та інші

Сюжет:
Кілька типів казкових героїв з'являються у Нью-Йорку наших днів - троє поросят, червона шапочка, сірий вовк, Гензель та інші. Вони живуть звичайним життям і приймають на себе сценарії казкових героїв у сучасній адаптації, тематика відомих казок переплітається з їхніми долями і створює безліч важко пояснюваних подій. Подій, які безповоротно впливають на їх життя і створюють героям досить жорсткі випробування. Кожен епізод показує відразу кілька історій різних героїв, які врешті-решт переплетуться між собою в єдине ціле, щоб показати картину сучасної казки з її вадами і чеснотами, моментами кохання і ненависті, жадібності, помсти і навіть вбивств.

Тривалість: 1 серія: ~ 50 хв. (цілком серій: 10)
Перелік серій

01. The Curse
02. Writer's Block
03. Family Business
04. Number One Fan
05. New Pages
06. Lost and Found
07. Thorns and All
08. Sweet Dreams
09. Favorite Son
10. Ever After
Якість:
Відео:
кодек:
розмір кадру: 1280x536
бітрейт: ~4000 кб/с

Аудіо # 1:
мова: українська
переклад: багатоголосий закадровий | DniproFilm
кодек: 5.1
бітрейт: 640 кб/с

Аудіо # 2:
мова: англійська
переклад: оригінал
кодек: 5.1
бітрейт: 640 кб/с
Info
Код:

Video
ID                          : 1
Format                      : AVC
Format/Info                 : Advanced Video Codec
Format profile              : [email protected]
Format settings             : CABAC / 1 Ref Frames
Format settings, CABAC      : Yes
Format settings, Reference  : 1 frame
Format settings, GOP        : M=1, N=30
Codec ID                    : V_MPEG4/ISO/AVC
Duration                    : 48 min 1 s
Bit rate                    : 3 756 kb/s
Width                       : 1 280 pixels
Height                      : 536 pixels
Display aspect ratio        : 2.40:1
Frame rate mode             : Constant
Frame rate                  : 24.000 FPS
Color space                 : YUV
Chroma subsampling          : 4:2:0
Bit depth                   : 8 bits
Scan type                   : Progressive
Bits/(Pixel*Frame)          : 0.228
Stream size                 : 1.26 GiB (75%)
Language                    : English
Default                     : Yes
Forced                      : No

Audio #1
ID                          : 2
Format                      : AC-3
Format/Info                 : Audio Coding 3
Commercial name             : Dolby Digital
Codec ID                    : A_AC3
Duration                    : 48 min 1 s
Bit rate mode               : Constant
Bit rate                    : 640 kb/s
Channel(s)                  : 6 channels
Channel layout              : L R C LFE Ls Rs
Sampling rate               : 48.0 kHz
Frame rate                  : 31.250 FPS (1536 SPF)
Compression mode            : Lossy
Stream size                 : 220 MiB (13%)
Title                       : DniproFilm
Language                    : Ukrainian
Service kind                : Complete Main
Default                     : Yes
Forced                      : No

Audio #2
ID                          : 3
Format                      : AC-3
Format/Info                 : Audio Coding 3
Commercial name             : Dolby Digital
Codec ID                    : A_AC3
Duration                    : 48 min 1 s
Bit rate mode               : Constant
Bit rate                    : 640 kb/s
Channel(s)                  : 6 channels
Channel layout              : L R C LFE Ls Rs
Sampling rate               : 48.0 kHz
Frame rate                  : 31.250 FPS (1536 SPF)
Compression mode            : Lossy
Stream size                 : 220 MiB (13%)
Language                    : English
Service kind                : Complete Main
Default                     : No
Forced                      : No
Скріншоти





Джерело озвучення: DniproFilm


Авторський реліз (завантажувати можна без реєстрації)
 Трекер:    Зареєстрований   

Завантажити / скачати серіал українською



відео для новачків



 Зареєстрований:   2021-02-12 14:55
 Розмір:   18.28 GB 
 Оцінка серіалу:   9.5/10 (Голосів: 2)
   
DniproFilm 
VIP


З нами з: 10.10.18
Востаннє: 24.02.21
Повідомлень: 459

2021-02-12 14:55  
Реліз оновлено. Змінено 1 серію (нове аудіо)

Ваш часовий пояс: GMT + 2 Години

Нова тема   Відповісти