Хороший лікар (Сезон 3) / The Good Doctor (Season 3) (2019) 1080p Ukr/Eng | Sub Eng

Нові коментарі

Нова тема   Відповісти
Автор Повідомлення
wuzicka 
Свій


З нами з: 08.03.10
Востаннє: 01.03.21
Повідомлень: 104

2021-02-10 13:53  
Хороший лікар (Сезон 3) / The Good Doctor (Season 3) (2019) 1080p Ukr/Eng | Sub Eng

Хороший лікар (Сезон 3) / The Good Doctor (Season 3) (2019) 1080p Ukr/Eng | Sub Eng


Жанр: драма
Країна: США



Кінокомпанія: ABC Studios
Режисер: Девід Шор
Актори: Фредді Хаймор, Ніколас Гонсалес, Антонія Томас та інші

Сюжет:
Історія молодого талановитого лікаря з синдромом саванта, що володіє унікальними здібностями - неймовірною пам'яттю і фантастичною чутливістю до проблем, що спалахує всередині людського організму. Герой стає блискучим хірургом, незважаючи на те, що в особистісному плані його розвиток відповідає розвитку десятирічного дитини


Тривалість: 1 серія: ~ 45:00 (цілком серій: 20)
Перелік серій
01. Disaster
02. Debts
03. Claire
04. Take My Hand
05. First Case, Second Base
06. 45-Degree Angle
07. SFAD
08. Moonshot
09. Incomplete
10. Friends and Family
11. Fractured
12. Mutations
13. Sex and Death
14. Influence
15. Unsaid
16. Autopsy
17. Fixation
18. Heartbreak
19. Hurt
20. I Love You
Якість:
Відео:
кодек:
розмір кадру: 1920 х 1080
бітрейт: ~ 5703 кб/с

Аудіо # 1:
мова: українська
переклад: багатоголосий закадровий [Indigo TV]
кодек: 2.0
бітрейт: 192 кб/с

Аудіо # 2:
мова: англійська
переклад: оригінал
кодек: E- 5.1
бітрейт: 640 кб/с

Субтитри:
мова: англійська
тип: програмні (м'які)
формат: *.srt
Info
General
Unique ID : 29857828670570201562395683559406594218 (0x1676689C0C499C7D17587A4BC10C68AA)
Complete name : The good doctor. 2019. s03.. 1080p. Ukr.Eng\The good doctor.2019.s03e01..1080p.Ukr.Eng.
Format :
Format version : Version 4
File size : 1.97 GiB
Duration : 43 min 10 s
Overall bit rate : 6 537 kb/s
Encoded date : UTC 2021-02-10 09:56:03
Writing application : v53.0.0 ('Fool's Gold') 64-bit
Writing library : libebml v1.4.1 + v1.6.2

Video
ID : 1
Format : AVC
Format/Info : Advanced Video Codec
Format profile : [email protected]
Format settings : CABAC / 4 Ref Frames
Format settings, CABAC : Yes
Format settings, ReFrames : 4 frames
Codec ID : V_MPEG4/ISO/AVC
Duration : 43 min 10 s
Bit rate mode : Constant
Bit rate : 5 703 kb/s
Nominal bit rate : 10 000 kb/s
Width : 1 920 pixels
Height : 1 080 pixels
Display aspect ratio : 16:9
Frame rate mode : Constant
Frame rate : 23.976 (24000/1001) FPS
Color space : YUV
Chroma subsampling : 4:2:0
Bit depth : 8 bits
Scan type : Progressive
Bits/(Pixel*Frame) : 0.115
Stream size : 1.72 GiB (87%)
Default : Yes
Forced : No
Color range : Limited
Color primaries : BT.709
Transfer characteristics : BT.709
Matrix coefficients : BT.709

Audio #1
ID : 2
Format : AC-3
Format/Info : Audio Coding 3
Commercial name : Dolby Digital
Codec ID : A_AC3
Duration : 43 min 10 s
Bit rate mode : Constant
Bit rate : 192 kb/s
Channel(s) : 2 channels
Channel layout : L R
Sampling rate : 48.0 kHz
Frame rate : 31.250 FPS (1536 SPF)
Bit depth : 16 bits
Compression mode : Lossy
Delay relative to video : 43 ms
Stream size : 59.3 MiB (3%)
Title : DD 2.0 @ 192 kbps - Indigo TV
Language : Ukrainian
Service kind : Complete Main
Default : Yes
Forced : Yes

Audio #2
ID : 3
Format : E-AC-3
Format/Info : Enhanced AC-3
Commercial name : Dolby Digital Plus
Codec ID : A_EAC3
Duration : 43 min 10 s
Bit rate mode : Constant
Bit rate : 640 kb/s
Channel(s) : 6 channels
Channel layout : L R C LFE Ls Rs
Sampling rate : 48.0 kHz
Frame rate : 31.250 FPS (1536 SPF)
Compression mode : Lossy
Stream size : 198 MiB (10%)
Title : Original
Language : English
Service kind : Complete Main
Default : No
Forced : No

Text
ID : 4
Format : UTF-8
Codec ID : S_TEXT/UTF8
Codec ID/Info : UTF-8 Plain Text
Duration : 42 min 34 s
Bit rate : 79 b/s
Count of elements : 860
Stream size : 24.7 KiB (0%)
Title : English
Language : English
Default : No
Forced : No
Скріншоти



Джерело:
Особиста оцінка: 8 - мені сподобалося


Бронзовий реліз (на рейтинг впливає 75% завантаженого)
 Трекер:    Зареєстрований   

Завантажити / скачати серіал українською



відео для новачків



 Зареєстрований:   2021-02-10 13:53
 Розмір:   42.84 GB 
 Оцінка серіалу:   9.3/10 (Голосів: 3)
   
Ваш часовий пояс: GMT + 2 Години

Нова тема   Відповісти