Хороший лікар (Сезон 2) / The Good Doctor (Season 2) (2018) 1080p Ukr/Eng | Sub Eng

Нові коментарі

Нова тема   Відповісти
Автор Повідомлення
wuzicka 
Свій


З нами з: 08.03.10
Востаннє: 04.03.21
Повідомлень: 104

2021-02-10 13:42  
Хороший лікар (Сезон 2) / The Good Doctor (Season 2) (2018) 1080p Ukr/Eng | Sub Eng

Хороший лікар (Сезон 2) / The Good Doctor (Season 2) (2018) 1080p Ukr/Eng | Sub Eng


Жанр: драма
Країна: США



Кінокомпанія: ABC Studios
Режисер: Девід Шор
Актори: Фредді Хаймор, Ніколас Гонсалес, Антонія Томас та інші

Сюжет:
Історія молодого талановитого лікаря з синдромом саванта, що володіє унікальними здібностями - неймовірною пам'яттю і фантастичною чутливістю до проблем, що спалахує всередині людського організму. Герой стає блискучим хірургом, незважаючи на те, що в особистісному плані його розвиток відповідає розвитку десятирічного дитини


Тривалість: 1 серія: ~ 45хв. (цілком серій: 18)
Перелік серій
01. Hello
02. Middle Ground
03. 36 Hours
04. Tough Titmouse
05. Carrots
06. Two-Ply (or Not Two-Ply)
07. Hubert
08. Stories
09. Empathy
10. Quarantine (1)
11. Quarantine Part Two (2)
12. Aftermath
13. Xin
14. Faces
15. Risk and Reward
16. Believe
17. Breakdown
18. Trampoline
Якість:
Відео:
кодек:
розмір кадру: 1920x1080
бітрейт: ~ 9325 кб/с

Аудіо # 1:
мова: українська
переклад: багатоголосий закадровий [Indigo TV]
кодек: 2.0
бітрейт: 192 кб/с

Аудіо # 2:
мова: англійська
переклад: оригінал
кодек: E- 5.1
бітрейт: 640 кб/с

Субтитри:
мова: англійська
тип: програмні (м'які)
формат: *.srt
Info
General
Unique ID : 130898778179365167571207099417652143931 (0x627A300A59B22C09B44EA51C91C4A73B)
Complete name : The good doctor. 2018. s02.. 1080p. Ukr.Eng\The good doctor.2018.s02e01..1080p.Ukr.Eng.
Format :
Format version : Version 4
File size : 3.05 GiB
Duration : 43 min 1 s
Overall bit rate : 10.2 Mb/s
Encoded date : UTC 2021-02-10 10:32:48
Writing application : v53.0.0 ('Fool's Gold') 64-bit
Writing library : libebml v1.4.1 + v1.6.2

Video
ID : 1
Format : AVC
Format/Info : Advanced Video Codec
Format profile : [email protected]
Format settings : CABAC / 4 Ref Frames
Format settings, CABAC : Yes
Format settings, ReFrames : 4 frames
Codec ID : V_MPEG4/ISO/AVC
Duration : 43 min 1 s
Bit rate : 9 325 kb/s
Width : 1 920 pixels
Height : 1 080 pixels
Display aspect ratio : 16:9
Frame rate mode : Constant
Frame rate : 23.976 (24000/1001) FPS
Color space : YUV
Chroma subsampling : 4:2:0
Bit depth : 8 bits
Scan type : Progressive
Bits/(Pixel*Frame) : 0.188
Stream size : 2.80 GiB (92%)
Default : Yes
Forced : No
Color range : Limited
Color primaries : BT.709
Transfer characteristics : BT.709
Matrix coefficients : BT.709

Audio #1
ID : 2
Format : AC-3
Format/Info : Audio Coding 3
Commercial name : Dolby Digital
Codec ID : A_AC3
Duration : 43 min 1 s
Bit rate mode : Constant
Bit rate : 192 kb/s
Channel(s) : 2 channels
Channel layout : L R
Sampling rate : 48.0 kHz
Frame rate : 31.250 FPS (1536 SPF)
Bit depth : 16 bits
Compression mode : Lossy
Delay relative to video : 43 ms
Stream size : 59.1 MiB (2%)
Title : DD 2.0 @ 192 kbps - Indigo TV
Language : Ukrainian
Service kind : Complete Main
Default : Yes
Forced : Yes

Audio #2
ID : 3
Format : E-AC-3
Format/Info : Enhanced AC-3
Commercial name : Dolby Digital Plus
Codec ID : A_EAC3
Duration : 43 min 1 s
Bit rate mode : Constant
Bit rate : 640 kb/s
Channel(s) : 6 channels
Channel layout : L R C LFE Ls Rs
Sampling rate : 48.0 kHz
Frame rate : 31.250 FPS (1536 SPF)
Compression mode : Lossy
Stream size : 197 MiB (6%)
Title : Original
Language : English
Service kind : Complete Main
Default : No
Forced : No

Text
ID : 4
Format : UTF-8
Codec ID : S_TEXT/UTF8
Codec ID/Info : UTF-8 Plain Text
Duration : 42 min 43 s
Bit rate : 69 b/s
Count of elements : 819
Stream size : 21.8 KiB (0%)
Title : English
Language : English
Default : No
Forced : No
Скріншоти



Джерело:
Особиста оцінка: 8 - мені сподобалося


Бронзовий реліз (на рейтинг впливає 75% завантаженого)
 Трекер:    Зареєстрований   

Завантажити / скачати серіал українською



відео для новачків



 Зареєстрований:   2021-02-10 13:42
 Розмір:   43.39 GB 
 Оцінка серіалу:   9.5/10 (Голосів: 4)
   
Ваш часовий пояс: GMT + 2 Години

Нова тема   Відповісти