Білий тигр / The White Tiger (2021) AVC Eng | Sub Ukr/Eng

Нові коментарі

Нова тема   Відповісти
Автор Повідомлення
Anonymous 







2021-02-10 01:42  
Білий тигр / The White Tiger (2021) AVC Eng | Sub Ukr/Eng



Жанр: драма, кримінальний
Країна: Індія, США



Кінокомпанія: Lava Media, ARRAY Filmworks, Netflix, Noruz Films
Режисер: Рамін Бахрані / Ramin Bahrani
Актори: Адарш Ґурав / Adarsh Gourav, Пріянка Чопра / Priyanka Chopra, Раджкумар Рао / Rajkummar Rao та інші

Сюжет:
Амбіційний індійський водій намагається хитрістю вирватися зі злиднів та добитися успіху. Грандіозна подорож за мотивами бестселера New York Times.
Офіційний трейлер:

Рейтинг MPAA: R - особам до 17 років обов'язкова присутність батьків або дорослого опікуна
Вікова категорія: 16+
Тривалість: 02:07:02
Якість:
Відео:
кодек:
розмір кадру: 720х360
бітрейт: 1100 кб/с

Аудіо:*
мова: англійська
переклад: оригінал
кодек: 2.0
бітрейт: 256 кб/с

Субтитри # 1:
мова: українська
тип: програмні (м'які)
формат: *.srt
переклад: офіційний, Наталя Ковалишин

Субтитри # 2-3:
мова: англійська (повні, форсовані)
тип: програмні (м'які)
формат: *.srt
Info
Код:
Complete name               : The White Tiger (2021) [Eng sub.Ukr,Eng] AVC [Hurtom].
Format                      :
Format version              : Version 4
File size                   : 1.21 GiB
Duration                    : 2 h 7 min
Overall bit rate            : 1 359 kb/s
Movie name                  : Білий тигр / The White Tiger (2021) [Eng sub.Ukr,Eng] AVC [Hurtom]
Encoded date                : UTC 2021-02-09 23:37:09
Writing application         : v53.0.0 ('Fool's Gold') 64-bit
Writing library             : libebml v1.4.1 + v1.6.2
Cover                       : Yes
Attachments                 : cover.jpg

Video
ID                          : 1
Format                      : AVC
Format/Info                 : Advanced Video Codec
Format profile              : [email protected]
Format settings             : CABAC / 5 Ref Frames
Format settings, CABAC      : Yes
Format settings, Reference  : 5 frames
Codec ID                    : V_MPEG4/ISO/AVC
Duration                    : 2 h 7 min
Bit rate                    : 1 100 kb/s
Width                       : 720 pixels
Height                      : 360 pixels
Display aspect ratio        : 2.000
Frame rate mode             : Constant
Frame rate                  : 24.000 FPS
Color space                 : YUV
Chroma subsampling          : 4:2:0
Bit depth                   : 8 bits
Scan type                   : Progressive
Bits/(Pixel*Frame)          : 0.177
Stream size                 : 1 000 MiB (81%)
Title                       : Білий тигр / The White Tiger (2021) AVC [NF, ION10]
Writing library             : core 152 r2851M ba24899
Encoding settings           : cabac=1 / ref=5 / deblock=1:-1:-1 / analyse=0x3:0x113 / me=umh / subme=9 / psy=1 / psy_rd=1.00:0.15 / mixed_ref=1 / me_range=16 / chroma_me=1 / trellis=2 / 8x8dct=1 / cqm=0 / deadzone=21,11 / fast_pskip=1 / chroma_qp_offset=-3 / threads=16 / lookahead_threads=1 / sliced_threads=0 / nr=0 / decimate=1 / interlaced=0 / bluray_compat=0 / constrained_intra=0 / bframes=3 / b_pyramid=2 / b_adapt=2 / b_bias=0 / direct=3 / weightb=1 / open_gop=0 / weightp=2 / keyint=250 / keyint_min=24 / scenecut=40 / intra_refresh=0 / rc_lookahead=50 / rc=2pass / mbtree=1 / bitrate=1100 / ratetol=1.0 / qcomp=0.60 / qpmin=0 / qpmax=69 / qpstep=4 / cplxblur=20.0 / qblur=0.5 / ip_ratio=1.40 / aq=1:1.00
Language                    : English
Default                     : Yes
Forced                      : No

Audio
ID                          : 2
Format                      : LC
Format/Info                 : Advanced Audio Codec Low Complexity
Codec ID                    : A_AAC-2
Duration                    : 2 h 7 min
Bit rate                    : 256 kb/s
Channel(s)                  : 2 channels
Channel layout              : L R
Sampling rate               : 48.0 kHz
Frame rate                  : 46.875 FPS (1024 SPF)
Compression mode            : Lossy
Delay relative to video     : -43 ms
Stream size                 : 233 MiB (19%)
Title                       : Original, 2.0 256 Kbps
Language                    : English
Default                     : Yes
Forced                      : No

Text #1
ID                          : 3
Format                      : UTF-8
Codec ID                    : S_TEXT/UTF8
Codec ID/Info               : UTF-8 Plain Text
Duration                    : 2 h 5 min
Bit rate                    : 96 b/s
Count of elements           : 1504
Stream size                 : 88.6 KiB (0%)
Title                       : Ukr Full [Netflix]
Language                    : Ukrainian
Default                     : Yes
Forced                      : Yes

Text #2
ID                          : 4
Format                      : UTF-8
Codec ID                    : S_TEXT/UTF8
Codec ID/Info               : UTF-8 Plain Text
Duration                    : 2 h 4 min
Bit rate                    : 75 b/s
Count of elements           : 1832
Stream size                 : 68.5 KiB (0%)
Title                       : Eng SDH
Language                    : English
Default                     : No
Forced                      : No

Text #3
ID                          : 5
Format                      : UTF-8
Codec ID                    : S_TEXT/UTF8
Codec ID/Info               : UTF-8 Plain Text
Duration                    : 1 h 52 min
Bit rate                    : 17 b/s
Count of elements           : 460
Stream size                 : 14.8 KiB (0%)
Title                       : Eng Forced
Language                    : English
Default                     : No
Forced                      : No



Джерело: &
Подяка leicheman'у за надані субтитри.

*У випадку появи українського озвучення реліз буде оновлено.


 Трекер:    Зареєстрований   

Завантажити / скачати фільм українською



відео для новачків



 Зареєстрований:   2021-02-10 01:42
 Розмір:   1.21 GB 
 Оцінка фільму:   8.8/10 (Голосів: 10)
 ЗАЛИШАЙТЕСЬ ЯКОМОГА ДОВШЕ НА РОЗДАЧІ! ЗАВАНТАЖИВ САМ - ДАЙ ЗАВАНТАЖИТИ ІНШИМ!
   
Інші релізи
   Білий тигр / The White Tiger (2021) 1080p Eng | Sub Ukr/Eng igor911  8 / 0   4.22 GB   2021-02-10 01:30 
Ваш часовий пояс: GMT + 2 Години

Нова тема   Відповісти