Білий тигр / The White Tiger (2021) 1080p Eng | Sub Ukr/Eng

Нові коментарі

Нова тема   Відповісти
Автор Повідомлення
Anonymous 







2021-02-09 21:06  
Білий тигр / The White Tiger (2021) 1080p Eng | Sub Ukr/Eng

Білий тигр / The White Tiger (2021) 1080p Eng | Sub Ukr/Eng


Жанр: драма, кримінальний
Країна: Індія, США



Кінокомпанія: Lava Media, ARRAY Filmworks, Netflix, Noruz Films
Режисер: Рамін Бахрані / Ramin Bahrani
Актори: Адарш Ґурав / Adarsh Gourav, Пріянка Чопра / Priyanka Chopra, Раджкумар Рао / Rajkummar Rao та інші

Сюжет:
Амбіційний індійський водій намагається хитрістю вирватися зі злиднів та добитися успіху. Грандіозна подорож за мотивами бестселера New York Times.
Офіційний трейлер:

Рейтинг MPAA: R - особам до 17 років обов'язкова присутність батьків або дорослого опікуна
Вікова категорія: 16+
Тривалість: 02:07:02
Якість: 1080p
Відео:
кодек:
розмір кадру: 1920х1080
бітрейт: 3981 кб/с

Аудіо:*
мова: англійська
переклад: оригінал
кодек: E- JOC 5.1
бітрейт: 768 кб/с

Субтитри # 1:
мова: українська
тип: програмні (м'які)
формат: *.srt
переклад: офіційний, Наталя Ковалишин

Субтитри # 2-3:
мова: англійська (повні, форсовані)
тип: програмні (м'які)
формат: *.srt
Info
Код:
Complete name               : The White Tiger (2021) [Eng sub.Ukr,Eng] 1080p [Hurtom].
Format                      :
Format version              : Version 4
File size                   : 4.22 GiB
Duration                    : 2 h 7 min
Overall bit rate mode       : Variable
Overall bit rate            : 4 750 kb/s
Movie name                  : Білий тигр / The White Tiger (2021) [Eng sub.Ukr,Eng] 1080p [Hurtom]
Encoded date                : UTC 2021-02-09 22:05:00
Writing application         : v53.0.0 ('Fool's Gold') 64-bit
Writing library             : libebml v1.4.1 + v1.6.2
Cover                       : Yes
Attachments                 : cover.jpg

Video
ID                          : 1
Format                      : AVC
Format/Info                 : Advanced Video Codec
Format profile              : [email protected]
Format settings             : CABAC / 4 Ref Frames
Format settings, CABAC      : Yes
Format settings, Reference  : 4 frames
Codec ID                    : V_MPEG4/ISO/AVC
Duration                    : 2 h 7 min
Bit rate mode               : Variable
Bit rate                    : 3 981 kb/s
Maximum bit rate            : 20.0 Mb/s
Width                       : 1 920 pixels
Height                      : 1 080 pixels
Display aspect ratio        : 16:9
Frame rate mode             : Constant
Frame rate                  : 24.000 FPS
Color space                 : YUV
Chroma subsampling          : 4:2:0
Bit depth                   : 8 bits
Scan type                   : Progressive
Bits/(Pixel*Frame)          : 0.080
Stream size                 : 3.53 GiB (84%)
Writing library             : core 148 r2722 1b0121b
Encoding settings           : cabac=1 / ref=4 / deblock=1:0:0 / analyse=0x3:0x111 / me=umh / subme=10 / psy=1 / psy_rd=1.00:0.00 / mixed_ref=1 / me_range=120 / chroma_me=1 / trellis=2 / 8x8dct=1 / cqm=0 / deadzone=21,11 / fast_pskip=1 / chroma_qp_offset=-2 / threads=8 / lookahead_threads=2 / sliced_threads=0 / nr=0 / decimate=1 / interlaced=0 / bluray_compat=0 / stitchable=1 / constrained_intra=0 / bframes=16 / b_pyramid=2 / b_adapt=2 / b_bias=0 / direct=3 / weightb=1 / open_gop=0 / weightp=2 / keyint=240 / keyint_min=121 / scenecut=0 / intra_refresh=0 / rc_lookahead=240 / rc=crf / mbtree=1 / crf=16.0 / qcomp=0.50 / qpmin=6 / qpmax=51 / qpstep=4 / vbv_maxrate=20000 / vbv_bufsize=25000 / crf_max=0.0 / nal_hrd=vbr / filler=0 / ip_ratio=1.40 / aq=1:0.80
Language                    : English
Default                     : Yes
Forced                      : No

Audio
ID                          : 2
Format                      : E-AC-3 JOC
Format/Info                 : Enhanced AC-3 with Joint Object Coding
Commercial name             : Dolby Digital Plus with Dolby Atmos
Codec ID                    : A_EAC3
Duration                    : 2 h 7 min
Bit rate mode               : Constant
Bit rate                    : 768 kb/s
Channel(s)                  : 6 channels
Channel layout              : L R C LFE Ls Rs
Sampling rate               : 48.0 kHz
Frame rate                  : 31.250 FPS (1536 SPF)
Compression mode            : Lossy
Stream size                 : 698 MiB (16%)
Title                       : Білий тигр / The White Tiger (2021) 1080p [NF, CMGR]
Language                    : English
Service kind                : Complete Main
Default                     : Yes
Forced                      : No
Complexity index            : 16
Number of dynamic objects   : 15
Bed channel count           : 1 channel
Bed channel configuration   : LFE

Text #1
ID                          : 3
Format                      : UTF-8
Codec ID                    : S_TEXT/UTF8
Codec ID/Info               : UTF-8 Plain Text
Duration                    : 2 h 5 min
Bit rate                    : 96 b/s
Count of elements           : 1504
Stream size                 : 88.6 KiB (0%)
Title                       : Ukr Full [Netflix]
Language                    : Ukrainian
Default                     : Yes
Forced                      : Yes

Text #2
ID                          : 4
Format                      : UTF-8
Codec ID                    : S_TEXT/UTF8
Codec ID/Info               : UTF-8 Plain Text
Duration                    : 2 h 4 min
Bit rate                    : 75 b/s
Count of elements           : 1832
Stream size                 : 68.5 KiB (0%)
Title                       : English [CC]
Language                    : English
Default                     : No
Forced                      : No

Text #3
ID                          : 5
Format                      : UTF-8
Codec ID                    : S_TEXT/UTF8
Codec ID/Info               : UTF-8 Plain Text
Duration                    : 1 h 52 min
Bit rate                    : 17 b/s
Count of elements           : 460
Stream size                 : 14.8 KiB (0%)
Title                       : English [Forced]
Language                    : English
Default                     : No
Forced                      : No



Джерело: &
Подяка leicheman'у за надані субтитри.

*У випадку появи українського озвучення реліз буде оновлено.


 Трекер:    Зареєстрований   

Завантажити / скачати фільм українською



відео для новачків



 Зареєстрований:   2021-02-10 01:30
 Розмір:   4.22 GB 
 Оцінка фільму:   10/10 (Голосів: 1)
 ЗАЛИШАЙТЕСЬ ЯКОМОГА ДОВШЕ НА РОЗДАЧІ! ЗАВАНТАЖИВ САМ - ДАЙ ЗАВАНТАЖИТИ ІНШИМ!
   
Інші релізи
   Білий тигр / The White Tiger (2021) AVC Eng | Sub Ukr/Eng igor911  6 / 0   1.21 GB   2021-02-10 01:42 
bot 
робот


З нами з: 30.09.07
Востаннє: 26.05.05
Повідомлень: 27255

2021-02-10 01:30  
Тему перенесено з Анонси релізів до форуму Фільми


igor911

Андрерад 
Свій


З нами з: 09.06.14
Востаннє: 21.02.21
Повідомлень: 80

2021-02-16 16:48  
Шикарний фільм, шкода що напевно не буде українського дубляжу. Варто переглянути щоб не нарікати на долю нам, простим українцям. Все таки нам пощастило народитися не в Індії Happy
Гарно показано, що перешкоди до нормального життя переважно в наших головах, і наскільки руйнівною для будь якої держави є корупція

sabretus 
Частий відвідувач


З нами з: 28.12.10
Востаннє: 22.02.21
Повідомлень: 34

2021-02-22 10:04  
Класний фільм, зачепив
Ваш часовий пояс: GMT + 2 Години

Нова тема   Відповісти