Хутен та леді. Пригоди на двох (Містер Хутен і Леді) (Сезон 1) / Hooten & the Lady (Season 1) (2016) 720p 2хUkr/Eng | sub Eng

Нові коментарі

Нова тема   Відповісти
Автор Повідомлення
Anonymous 







2021-02-07 13:18  
Хутен та леді. Пригоди на двох (Містер Хутен і Леді) (Сезон 1) / Hooten & the Lady (Season 1) (2016) 720p 2хUkr/Eng | sub Eng

Хутен та леді. Пригоди на двох (Містер Хутен і Леді) (Сезон 1) / Hooten & the Lady (Season 1) (2016) 720p 2хUkr/Eng | sub Eng
Blu ray




Жанр: екшн, пригодницький, драма
Країна: Велика Британія



Кінокомпанія: Red Planet Pictures, Indochina Productions | Sky1
Режисер: Колін Тіґ, Джастін Молотніков, Даніель О'Гара, Енді Гей
Актори: Майкл Лендіс, Офелія Ловібонд, Джесіка Гайнс, Шон Паркес, Джонатан Бейлі та ін.

Сюжет:
Авантюрист Улісс Гутена (Майкл Лендіс) та співробітниця Британського музею леді Алекс Ліндо-Паркер (Офелія Ловібонд) разом шукають стародавні артефакти. Гутен не уявляє своє життя без пригод, він мріє знайти скарби, казково розбагатіти і прославитися на весь світ. Історичні реліквії – це справжня цінність для головних героїв. Тому вони готові відправитися хоч на край світу, щоб забрати той чи інший предмет, колись пов'язаний з історичними особистостями.


Тривалість: 1 серія: ~ 45 хв. (цілком серій: 8)
Перелік серій
01 - «Амазонка / The Amazon»
02 - «Рим / Rome»
03 - «Єгипет / Egypt»
04 - «Бутан / Bhutan»
05 - «Ефіопія / Ethiopia»
06 - «Москва / Moscow»
07 - «Камбоджа / Cambodia»
08 - «Кариби / The Caribbean»
Якість: [німецький відеоряд]
Відео:
кодек:
розмір кадру: 1280 x 720
бітрейт: 6714 кб/с

Аудіо # 1:
мова: українська
переклад: багатоголосий закадровий
кодек: 2.0
бітрейт: 192 кб/с
Назву перекладено як Хутен та леді. Пригоди на двох

Аудіо # 2:
мова: українська
переклад: професійний дубльований
кодек: 2.0
бітрейт: 192 кб/с
Назву перекладено як Містер Хутен і Леді

Аудіо # 3:
мова: англійська
переклад: оригінал
кодек: 5.1
бітрейт: 640 кб/с

Джерело озвучення:
,
За запис звуку з ТБ дякуємо панам Neytreenor (К1) та slavik_v_z (ICTV)
Звук з каналу ICTV взято з AVC релізу

Субтитри:
мова: англійська [Full, SDH]
тип: програмні (м'які)
формат: *.srt
Info
Код:
General
Unique ID                                : 17940515956986949906768780416548632508 (0xD7F37BA8701D52D80EDADBF1FB077BC)
Complete name                            : Hooten & the Lady S01E01 (2016) 720p [2xUkr_Eng] [Hurtom].
Format                                   :
Format version                           : Version 4
File size                                : 2.44 GiB
Duration                                 : 45 min 7 s
Overall bit rate                         : 7 741 kb/s
Movie name                               : Хутен та леді. Пригоди на двох / Містер Хутен і Леді (Сезон 1, серія 1) (2016)
Encoded date                             : UTC 2021-02-07 11:50:06
Writing application                      : v52.0.0 ('Secret For The Mad') 64-bit
Writing library                          : libebml v1.4.1 + v1.6.2
Cover                                    : Yes
Attachments                              : cover.jpg

Video
ID                                       : 1
Format                                   : AVC
Format/Info                              : Advanced Video Codec
Format profile                           : [email protected]
Format settings                          : CABAC / 9 Ref Frames
Format settings, CABAC                   : Yes
Format settings, Reference frames        : 9 frames
Codec ID                                 : V_MPEG4/ISO/AVC
Duration                                 : 45 min 7 s
Bit rate                                 : 6 714 kb/s
Width                                    : 1 280 pixels
Height                                   : 720 pixels
Display aspect ratio                     : 16:9
Frame rate mode                          : Constant
Frame rate                               : 25.000 FPS
Color space                              : YUV
Chroma subsampling                       : 4:2:0
Bit depth                                : 8 bits
Scan type                                : Progressive
Bits/(Pixel*Frame)                       : 0.291
Stream size                              : 2.12 GiB (87%)
Writing library                          : core 152 r2851kMod ba24899
Encoding settings                        : cabac=1 / ref=9 / deblock=1:-3:-3 / analyse=0x3:0x133 / me=umh / subme=11 / psy=1 / fade_compensate=0.00 / psy_rd=1.00:0.00 / mixed_ref=1 / me_range=32 / chroma_me=1 / trellis=2 / 8x8dct=1 / cqm=0 / deadzone=21,11 / fast_pskip=1 / chroma_qp_offset=-2 / threads=12 / lookahead_threads=3 / sliced_threads=0 / nr=0 / decimate=1 / interlaced=0 / bluray_compat=0 / constrained_intra=0 / bframes=10 / b_pyramid=2 / b_adapt=2 / b_bias=0 / direct=3 / weightb=1 / open_gop=0 / weightp=2 / keyint=250 / keyint_min=25 / scenecut=40 / intra_refresh=0 / rc=crf / mbtree=0 / crf=16.0000 / qcomp=0.65 / qpmin=0 / qpmax=69 / qpstep=4 / ip_ratio=1.25 / pb_ratio=1.20 / aq=1:0.60
Language                                 : English
Default                                  : Yes
Forced                                   : No

Audio #1
ID                                       : 2
Format                                   : AC-3
Format/Info                              : Audio Coding 3
Commercial name                          : Dolby Digital
Codec ID                                 : A_AC3
Duration                                 : 45 min 7 s
Bit rate mode                            : Constant
Bit rate                                 : 192 kb/s
Channel(s)                               : 2 channels
Channel layout                           : L R
Sampling rate                            : 48.0 kHz
Frame rate                               : 31.250 FPS (1536 SPF)
Compression mode                         : Lossy
Stream size                              : 62.0 MiB (2%)
Title                                    : K1
Language                                 : Ukrainian
Service kind                             : Complete Main
Default                                  : Yes
Forced                                   : Yes

Audio #2
ID                                       : 3
Format                                   : AC-3
Format/Info                              : Audio Coding 3
Commercial name                          : Dolby Digital
Codec ID                                 : A_AC3
Duration                                 : 45 min 7 s
Bit rate mode                            : Constant
Bit rate                                 : 192 kb/s
Channel(s)                               : 2 channels
Channel layout                           : L R
Sampling rate                            : 48.0 kHz
Frame rate                               : 31.250 FPS (1536 SPF)
Compression mode                         : Lossy
Stream size                              : 62.0 MiB (2%)
Title                                    : ICTV
Language                                 : Ukrainian
Service kind                             : Complete Main
Default                                  : No
Forced                                   : Yes

Audio #3
ID                                       : 4
Format                                   : AC-3
Format/Info                              : Audio Coding 3
Commercial name                          : Dolby Digital
Codec ID                                 : A_AC3
Duration                                 : 45 min 7 s
Bit rate mode                            : Constant
Bit rate                                 : 640 kb/s
Channel(s)                               : 6 channels
Channel layout                           : L R C LFE Ls Rs
Sampling rate                            : 48.0 kHz
Frame rate                               : 31.250 FPS (1536 SPF)
Compression mode                         : Lossy
Stream size                              : 207 MiB (8%)
Language                                 : English
Service kind                             : Complete Main
Default                                  : No
Forced                                   : No

Text #1
ID                                       : 5
Format                                   : UTF-8
Codec ID                                 : S_TEXT/UTF8
Codec ID/Info                            : UTF-8 Plain Text
Duration                                 : 44 min 47 s
Bit rate                                 : 62 b/s
Count of elements                        : 664
Stream size                              : 20.4 KiB (0%)
Language                                 : English
Default                                  : No
Forced                                   : No

Text #2
ID                                       : 6
Format                                   : UTF-8
Codec ID                                 : S_TEXT/UTF8
Codec ID/Info                            : UTF-8 Plain Text
Duration                                 : 44 min 47 s
Bit rate                                 : 65 b/s
Count of elements                        : 714
Stream size                              : 21.6 KiB (0%)
Title                                    : SDH
Language                                 : English
Default                                  : No
Forced                                   : No

Menu
00:00:00.000                             : en:00:00:00.000
00:05:44.160                             : en:00:05:44.160
00:10:46.960                             : en:00:10:46.960
00:21:49.040                             : en:00:21:49.040
00:33:12.120                             : en:00:33:12.120

Скріншоти


Джерело:


Бронзовий реліз (на рейтинг впливає 75% завантаженого)
 Трекер:    Зареєстрований   

Завантажити / скачати серіал українською



відео для новачків



 Зареєстрований:   2021-02-07 16:18
 Розмір:   15.33 GB 
 Оцінка серіалу:   10/10 (Голосів: 1)
   
fl_fl 
Відео Гуртом - фільмокрай
Відео Гуртом - фільмокрай


З нами з: 26.05.09
Востаннє: 05.03.21
Повідомлень: 3373

2021-02-07 13:22  
Дубляж вирішили не додавати?
Anonymous 







2021-02-07 16:18  
fl_fl
якась дивина
вчора за пошуком Hooten & the Lady не видавало жодного релізу, а сьогодні бачу і веб дл і бдріпи
щось дивне коїться з пошуком
спробую завантажити бдріп і оновити реліз

Додано через 2 години 49 хвилин 36 секунд:

торент оновлено

Pegass 
VIP


З нами з: 17.12.09
Востаннє: 05.03.21
Повідомлень: 1155

2021-02-07 16:24  
Anonymous
додайте в описі, що:
Цитата:
примітка: німецький відеоряд

tilda4334 
Відео Гуртом - фільмокрай
Відео Гуртом - фільмокрай


З нами з: 15.08.14
Востаннє: 04.03.21
Повідомлень: 1431

2021-02-07 16:45  
ого, дубляж настільки поганий, що його аж 2 доріжкою поставили?
leicheman 
Відео Гуртом - фільмокрай
Відео Гуртом - фільмокрай


З нами з: 03.07.14
Востаннє: 05.03.21
Повідомлень: 5944

2021-02-07 17:46  
tilda4334
Я давно дивився, але пам'ятаю, що там не вистачало точно звуків які були в оригіналі, а от щодо якості самого перекладу тільки "вертоліт" згадую і все.

Neytreenor 
Відео Гуртом - запис з ТБ
Відео Гуртом - запис з ТБ


З нами з: 03.04.11
Востаннє: 05.03.21
Повідомлень: 3116

2021-02-07 19:00  
tilda4334 написано:
ого, дубляж настільки поганий, що його аж 2 доріжкою поставили?

Ну принаймні перше враження таке, що у К1 голоси приємніше, а переклад якісніше.

Ваш часовий пояс: GMT + 2 Години

Нова тема   Відповісти