Сучасне кохання (Сезон 1) / Modern Love (Season 1) (2019) 1080p Ukr/Eng | Sub Eng

Нові коментарі

Нова тема   Відповісти
Автор Повідомлення
wuzicka 
Свій


З нами з: 08.03.10
Востаннє: 28.02.21
Повідомлень: 104

2021-02-05 13:23  
Сучасне кохання (Сезон 1) / Modern Love (Season 1) (2019) 1080p Ukr/Eng | Sub Eng

Сучасне кохання (Сезон 1) / Modern Love (Season 1) (2019) 1080p Ukr/Eng | Sub Eng


Жанр: комедія, мелодрама
Країна: США



Кінокомпанія: Amazon studios
Режисер: Джон Карні, Том Холл, Шарон Хорган, Еммі Россам
Актори: Крістін Міліоті, Лоуренс Посса, Кейтлін Макгі, Дев Пател, Кетрін Кінер, Енн Гетевей ,Квінсі Тайлер Бернстан, Гарі Карр, Тіна Фей, Джон Слеттері, Софія Бутелла та інші

Сюжет:
Серіал, заснований на реальних історіях, опублікованих в колонці «The New York Times»


Тривалість: 1 серія: ~ 35:00 (цілком серій: 8)
Перелік серій
01. When the Doorman Is Your Main Man
02. When Cupid Is a Prying Journalist
03. Take Me as I Am, Whoever I Am
04. Rallying to Keep the Game Alive
05. At the Hospital, an Interlude of Clarity
06. So He Looked Like Dad. It Was Just Dinner, Right?
07. Hers Was a World of One
08. The Race Grows Sweeter Near Its Final Lap
Якість:
Відео:
кодек:
розмір кадру: 1920x1080
бітрейт: ~ 9298 кб/с

Аудіо # 1:
мова: українська
переклад: багатоголосий закадровий SVOЇ
кодек: 2.0
бітрейт: 192 кб/с

Аудіо # 2:
мова: англійська
переклад: оригінал
кодек: E- 5.1
бітрейт: 640 кб/с

Субтитри:
мова: англійська
тип: програмні (м'які)
формат: *.srt
Info
General
Unique ID : 179980296363243946837640872377398697284 (0x8766F1B82D47964A471481D9E1699D44)
Complete name : Modern love\Modern love. 2019. s01e01. 1080p. Ukr.Eng.
Format :
Format version : Version 4
File size : 2.25 GiB
Duration : 31 min 44 s
Overall bit rate : 10.1 Mb/s
Encoded date : UTC 2021-02-05 10:54:55
Writing application : v53.0.0 ('Fool's Gold') 64-bit
Writing library : libebml v1.4.1 + v1.6.2

Video
ID : 1
Format : AVC
Format/Info : Advanced Video Codec
Format profile : [email protected]
Format settings : CABAC / 4 Ref Frames
Format settings, CABAC : Yes
Format settings, ReFrames : 4 frames
Codec ID : V_MPEG4/ISO/AVC
Duration : 31 min 44 s
Bit rate mode : Constant
Bit rate : 9 298 kb/s
Nominal bit rate : 10 000 kb/s
Width : 1 920 pixels
Height : 1 080 pixels
Display aspect ratio : 16:9
Frame rate mode : Constant
Frame rate : 23.976 (24000/1001) FPS
Color space : YUV
Chroma subsampling : 4:2:0
Bit depth : 8 bits
Scan type : Progressive
Bits/(Pixel*Frame) : 0.187
Stream size : 2.06 GiB (92%)
Default : Yes
Forced : No
Color range : Limited
Color primaries : BT.709
Transfer characteristics : BT.709
Matrix coefficients : BT.709

Audio #1
ID : 2
Format : AC-3
Format/Info : Audio Coding 3
Commercial name : Dolby Digital
Codec ID : A_AC3
Duration : 31 min 44 s
Bit rate mode : Constant
Bit rate : 192 kb/s
Channel(s) : 2 channels
Channel layout : L R
Sampling rate : 48.0 kHz
Frame rate : 31.250 FPS (1536 SPF)
Bit depth : 16 bits
Compression mode : Lossy
Stream size : 43.6 MiB (2%)
Title : MVO - SVOЇ
Language : Ukrainian
Service kind : Complete Main
Default : Yes
Forced : No

Audio #2
ID : 3
Format : E-AC-3
Format/Info : Enhanced AC-3
Commercial name : Dolby Digital Plus
Codec ID : A_EAC3
Duration : 31 min 44 s
Bit rate mode : Constant
Bit rate : 640 kb/s
Channel(s) : 6 channels
Channel layout : L R C LFE Ls Rs
Sampling rate : 48.0 kHz
Frame rate : 31.250 FPS (1536 SPF)
Compression mode : Lossy
Stream size : 145 MiB (6%)
Language : English
Service kind : Complete Main
Default : No
Forced : No

Text
ID : 4
Format : UTF-8
Codec ID : S_TEXT/UTF8
Codec ID/Info : UTF-8 Plain Text
Duration : 31 min 22 s
Bit rate : 70 b/s
Count of elements : 574
Stream size : 16.3 KiB (0%)
Title : SDH
Language : English
Default : No
Forced : No

Menu
00:00:00.000 : en:Amazon Original
00:00:05.000 : en:Acknowledgement
00:00:10.000 : en:Opening Credits
00:01:07.000 : en:A kiss goodnight
00:04:00.000 : en:Title Sequence
00:04:06.000 : en:Guzmin is overprotective
00:09:36.000 : en:Men are predictable
00:11:44.000 : en:Something is different
00:16:12.000 : en:Maggie tells Ted the truth
00:18:15.000 : en:Maggie and Guzmin share a bond
00:21:18.000 : en:Everything changes with new life
00:25:42.000 : en:Some tough news
00:28:01.000 : en:The truth is in the eyes
00:30:45.000 : en:End Credits
Скріншоти



Джерело:
Особиста оцінка: 8 - мені сподобалося


Авторський реліз (завантажувати можна без реєстрації)
 Трекер:    Зареєстрований   

Завантажити / скачати серіал українською



відео для новачків



 Зареєстрований:   2021-02-05 13:23
 Розмір:   17.9 GB 
 Оцінка серіалу:   8/10 (Голосів: 1)
   
Ваш часовий пояс: GMT + 2 Години

Нова тема   Відповісти