Простір (Сезон 5) / The Expanse (Season 5) (2020-2021) 4K 2160p HDR H.265 Ukr/Eng | Sub Eng

Нові коментарі

Нова тема   Відповісти
Автор Повідомлення
ievgensobko 
Новенький


З нами з: 05.01.16
Востаннє: 02.03.21
Повідомлень: 16

2021-02-05 11:24  
Простір (Сезон 5) / The Expanse (Season 5) (2020-2021) 4K 2160p HDR H.265 Ukr/Eng | Sub Eng



Жанр: наукова фантастика, трилер, детектив
Країна: США



Кінокомпанія: Penguin in a Parka, SeanDanielCo, Alcon Entertainment
Режисер: Террі МакДонаф, Джефф Вулнаф, Роберт Ліберман
Актори: Томас Джейн, Стівен Стрейт, Кес Анвар, Вес Четем та інші.

Сюжет:
XXIII століття. Людство колонізувало Сонячну систему. Землею править ООН. Колонія на Марсі тепер незалежна і має власну армію. Внутрішні планети залежать від ресурсів поясу астероїдів. Астероїдяни живуть і працюють у космосі, повітря і вода у них цінується більше за золото. Десятиріччями назрівав конфлікт, який поставив Землю, Марс і Пояс на грань війни. І для її початку вистачить і однієї іскри.


Тривалість: 1 серія: 50:00 (цілком серій: 10)
Перелік серій

The Expanse | S05E01 | Exodus
The Expanse | S05E02 | Churn
The Expanse | S05E03 | Mother
The Expanse | S05E04 | Gaugamela
The Expanse | S05E05 | Down and Out
The Expanse | S05E06 | Tribes
The Expanse | S05E07 | Oyedeng
The Expanse | S05E08 | Hard Vacuum
The Expanse | S05E09 | Winnipesaukee
The Expanse | S05E10 | Nemesis Games
Якість: 4K 2160p [Amazon]

Відео:
кодек: H.265 (HEVC)
розмір кадру: 3840 х 1920
бітрейт: 14,7 Мбіт/сек
бітова глибина: 10 біт
кольоровий простір: BT.2020 (HDR)

Увага! Перед завантаженням переконайтесь, що ваш пристрій відтворення (та/або ПЗ) підтримує H.265 (HEVC)

Аудіо # 1:
мова: українська
переклад: професійний двоголосий закадровий [ DniproFilm ]
кодек: 5.1
бітрейт: 640 кб/с

Аудіо # 2:
мова: англійська
переклад: оригінал
кодек: E- 5.1
бітрейт: 640 кб/с

Субтитри:
мова: англійська
тип: програмні (м'які)
формат: *.srt

Субтитри:
мова: англійська SDH
тип: програмні (м'які)
формат: *.srt
Info

Код:

General
Unique ID                                : 187051555992882204143431976569998339764 (0x8CB8D1BC896541A0BFEC4DAD3066EEB4)
Complete name                            : /mnt/DATA/TVShows/The Expanse/The.Expanse.S05.2020.AMZN..2160p.x265.HDR.[Ukr.Eng]/The.Expanse.S05E02.Churn.AMZN..2160p.x265.HDR.[Ukr.Eng].
Format                                   :
Format version                           : Version 4
File size                                : 5.77 GiB
Duration                                 : 52 min 24 s
Overall bit rate                         : 15.8 Mb/s
Movie name                               : The Expanse | S05E02 | Churn
Encoded date                             : UTC 2021-02-02 11:16:47
Writing application                      : v52.0.0 ('Secret For The Mad') 64-bit
Writing library                          : libebml v1.4.1 + v1.6.2

Video
ID                                       : 1
Format                                   : HEVC
Format/Info                              : High Efficiency Video Coding
Format profile                           : Main [email protected]@Main
HDR format                               : SMPTE ST 2094 App 4, Version 1, HDR10+ Profile B compatible
Codec ID                                 : V_MPEGH/ISO/HEVC
Duration                                 : 52 min 24 s
Bit rate                                 : 14.7 Mb/s
Width                                    : 3 840 pixels
Height                                   : 2 160 pixels
Display aspect ratio                     : 16:9
Frame rate mode                          : Constant
Frame rate                               : 23.976 (24000/1001) FPS
Color space                              : YUV
Chroma subsampling                       : 4:2:0
Bit depth                                : 10 bits
Bits/(Pixel*Frame)                       : 0.074
Stream size                              : 5.40 GiB (93%)
Default                                  : Yes
Forced                                   : No
Color range                              : Limited
Color primaries                          : BT.2020
Transfer characteristics                 : PQ
Matrix coefficients                      : BT.2020 non-constant
Mastering display color primaries        : Display P3
Mastering display luminance              : min: 0.0001 cd/m2, max: 1000 cd/m2
Maximum Content Light Level              : 1004 cd/m2
Maximum Frame-Average Light Level        : 296 cd/m2

Audio #1
ID                                       : 2
Format                                   : AC-3
Format/Info                              : Audio Coding 3
Commercial name                          : Dolby Digital
Codec ID                                 : A_AC3
Duration                                 : 52 min 24 s
Bit rate mode                            : Constant
Bit rate                                 : 384 kb/s
Channel(s)                               : 6 channels
Channel layout                           : L R C LFE Ls Rs
Sampling rate                            : 48.0 kHz
Frame rate                               : 31.250 FPS (1536 SPF)
Compression mode                         : Lossy
Stream size                              : 144 MiB (2%)
Title                                    : професійне двоголосе закадрове DniproFilm
Language                                 : Ukrainian
Service kind                             : Complete Main
Default                                  : Yes
Forced                                   : No

Audio #2
ID                                       : 3
Format                                   : E-AC-3
Format/Info                              : Enhanced AC-3
Commercial name                          : Dolby Digital Plus
Codec ID                                 : A_EAC3
Duration                                 : 52 min 24 s
Bit rate mode                            : Constant
Bit rate                                 : 640 kb/s
Channel(s)                               : 6 channels
Channel layout                           : L R C LFE Ls Rs
Sampling rate                            : 48.0 kHz
Frame rate                               : 31.250 FPS (1536 SPF)
Compression mode                         : Lossy
Stream size                              : 240 MiB (4%)
Language                                 : English
Service kind                             : Complete Main
Default                                  : No
Forced                                   : No

Text #1
ID                                       : 4
Format                                   : UTF-8
Codec ID                                 : S_TEXT/UTF8
Codec ID/Info                            : UTF-8 Plain Text
Duration                                 : 50 min 4 s
Bit rate                                 : 58 b/s
Count of elements                        : 749
Stream size                              : 21.3 KiB (0%)
Title                                    : English
Language                                 : English
Default                                  : No
Forced                                   : No

Text #2
ID                                       : 5
Format                                   : UTF-8
Codec ID                                 : S_TEXT/UTF8
Codec ID/Info                            : UTF-8 Plain Text
Duration                                 : 50 min 17 s
Bit rate                                 : 70 b/s
Count of elements                        : 941
Stream size                              : 25.9 KiB (0%)
Title                                    : SDH
Language                                 : English
Default                                  : No
Forced                                   : No

Menu
00:00:00.000                             : en:Amazon Original
00:00:05.000                             : en:The more you share
00:05:08.000                             : en:Opening Credits
00:06:16.000                             : en:Timothy returns home
00:13:31.000                             : en:Holden checks Sakai's work
00:17:55.000                             : en:Force reduction and easy math
00:21:13.000                             : en:Amos sends Erich a message
00:23:34.000                             : en:Alex attends a lecture
00:29:12.000                             : en:Troubles letting go
00:32:20.000                             : en:Holden looks for Monica
00:37:33.000                             : en:Amos Burton wants to talk
00:43:11.000                             : en:Monica wakes up
00:44:55.000                             : en:Chrisjen raises suspicions
00:46:49.000                             : en:It takes strength to be kind
00:50:13.000                             : en:End Credits
Скріншоти






Джерело: &
Особиста оцінка: 8 - мені сподобалося



Авторський реліз (завантажувати можна без реєстрації)
 Трекер:    Зареєстрований   

Завантажити / скачати серіал українською



відео для новачків



 Зареєстрований:   2021-02-05 11:24
 Розмір:   56.96 GB 
 Оцінка серіалу:   10/10 (Голосів: 7)
   
Ваш часовий пояс: GMT + 2 Години

Нова тема   Відповісти