Знедолені (Сезон 1) / Les Misérables (Season 1) (2018) 1080p Ukr/Eng | sub Eng

Нові коментарі

Нова тема   Відповісти
Автор Повідомлення
Anonymous 







2021-02-03 23:11  
Знедолені (Сезон 1) / Les Misérables (Season 1) (2018) 1080p Ukr/Eng | sub Eng

Знедолені (Сезон 1) / Les Misérables (Season 1) (2018) 1080p Ukr/Eng | sub Eng
Blu ray



Жанр: драма, мелодрама, історичний
Країна: Велика Британія, США



Кінокомпанія: Lookout Point Ltd, British Broadcasting Corporation (BBC), BBC One
Режисер: Том Шенкленд
Актори: Домінік Вест, Лілі Коллінз, Дональд Самптер, Еллі Бембер, Девід Ойелоуо, Аділь Ахтар, Олівія Колман, Алекс Джарретт, Ерін Келіман, Джош О'Коннор, Джозеф Квінн, Ріс Йейтс та інші

Сюжет:
Телевізійна адаптація класичного роману Віктора Гюго про протистояння колишнього каторжника Жана Вальжана і інспектора Жавера на тлі пост-наполеонівської Франції початку XIX століття.


Тривалість: 1 серія: ~ 1 год. (цілком серій: 6)
Перелік серій
1. Episode 1.1
2. Episode 1.2
3. Episode 1.3
4. Episode 1.4
5. Episode 1.5
6. Episode 1.6
Якість:
Відео:
кодек:
розмір кадру: 1920 х 1080
бітрейт: 8999 кб/с

Аудіо # 1:
мова: українська
переклад: багатоголосий закадровий
кодек: 2.0
бітрейт: 192 кб/с

Аудіо # 2:
мова: англійська
переклад: оригінал
кодек: 5.1
бітрейт: 1509 кб/с

Джерело озвучення:
DniproFilm

Субтитри:
мова: англійська
тип: програмні (м'які)
формат: *.sub
Info
Код:
General
Unique ID                                : 284864577356389646879444640319814633386 (0xD64EEC05BD7DB99F28DF3071E87A07AA)
Complete name                            : Les Misérables S01E01 (2018) 1080p [Ukr_Eng] [Hurtom].
Format                                   :
Format version                           : Version 4
File size                                : 4.45 GiB
Duration                                 : 59 min 32 s
Overall bit rate                         : 10.7 Mb/s
Movie name                               : Знедолені (Сезон 1, серія 1) (2018)
Encoded date                             : UTC 2021-02-01 23:41:46
Writing application                      : v52.0.0 ('Secret For The Mad') 64-bit
Writing library                          : libebml v1.4.1 + v1.6.2
Cover                                    : Yes
Attachments                              : cover.jpg

Video
ID                                       : 1
Format                                   : AVC
Format/Info                              : Advanced Video Codec
Format profile                           : [email protected]
Format settings                          : CABAC / 4 Ref Frames
Format settings, CABAC                   : Yes
Format settings, Reference frames        : 4 frames
Codec ID                                 : V_MPEG4/ISO/AVC
Duration                                 : 59 min 32 s
Bit rate                                 : 8 999 kb/s
Width                                    : 1 920 pixels
Height                                   : 1 080 pixels
Display aspect ratio                     : 16:9
Frame rate mode                          : Constant
Frame rate                               : 25.000 FPS
Color space                              : YUV
Chroma subsampling                       : 4:2:0
Bit depth                                : 8 bits
Scan type                                : Progressive
Bits/(Pixel*Frame)                       : 0.174
Stream size                              : 3.74 GiB (84%)
Writing library                          : core 157 r2935 545de2f
Encoding settings                        : cabac=1 / ref=4 / deblock=1:-3:-3 / analyse=0x3:0x113 / me=umh / subme=8 / psy=1 / psy_rd=1.00:0.00 / mixed_ref=1 / me_range=16 / chroma_me=1 / trellis=1 / 8x8dct=1 / cqm=0 / deadzone=21,11 / fast_pskip=1 / chroma_qp_offset=-2 / threads=24 / lookahead_threads=4 / sliced_threads=0 / nr=0 / decimate=1 / interlaced=0 / bluray_compat=0 / constrained_intra=0 / bframes=3 / b_pyramid=2 / b_adapt=2 / b_bias=0 / direct=3 / weightb=1 / open_gop=0 / weightp=2 / keyint=250 / keyint_min=25 / scenecut=40 / intra_refresh=0 / rc_lookahead=50 / rc=2pass / mbtree=1 / bitrate=8999 / ratetol=1.0 / qcomp=0.60 / qpmin=0 / qpmax=69 / qpstep=4 / cplxblur=20.0 / qblur=0.5 / ip_ratio=1.40 / aq=3:0.80
Default                                  : Yes
Forced                                   : No

Audio #1
ID                                       : 2
Format                                   : AC-3
Format/Info                              : Audio Coding 3
Commercial name                          : Dolby Digital
Codec ID                                 : A_AC3
Duration                                 : 59 min 32 s
Bit rate mode                            : Constant
Bit rate                                 : 192 kb/s
Channel(s)                               : 2 channels
Channel layout                           : L R
Sampling rate                            : 48.0 kHz
Frame rate                               : 31.250 FPS (1536 SPF)
Compression mode                         : Lossy
Stream size                              : 81.8 MiB (2%)
Language                                 : Ukrainian
Service kind                             : Complete Main
Default                                  : Yes
Forced                                   : Yes

Audio #2
ID                                       : 3
Format                                   :
Format/Info                              : Digital Theater Systems
Codec ID                                 : A_DTS
Duration                                 : 59 min 32 s
Bit rate mode                            : Constant
Bit rate                                 : 1 509 kb/s
Channel(s)                               : 6 channels
Channel layout                           : C L R Ls Rs LFE
Sampling rate                            : 48.0 kHz
Frame rate                               : 93.750 FPS (512 SPF)
Bit depth                                : 24 bits
Compression mode                         : Lossy
Stream size                              : 643 MiB (14%)
Language                                 : English
Default                                  : No
Forced                                   : No

Text
ID                                       : 4
Format                                   : VobSub
Muxing mode                              : zlib
Codec ID                                 : S_VOBSUB
Codec ID/Info                            : Picture based subtitle format used on DVDs
Duration                                 : 58 min 49 s
Bit rate                                 : 9 812 b/s
Count of elements                        : 797
Stream size                              : 4.13 MiB (0%)
Language                                 : English
Default                                  : Yes
Forced                                   : No

Menu
00:00:00.000                             : en:Chapter 01
00:13:31.600                             : en:Chapter 02
00:23:39.560                             : en:Chapter 03
00:32:36.440                             : en:Chapter 04
00:37:28.560                             : en:Chapter 05
00:53:12.600                             : en:Chapter 06

Скріншоти


Джерело:


Авторський реліз (завантажувати можна без реєстрації)
 Трекер:    Зареєстрований   

Завантажити / скачати серіал українською



відео для новачків



 Зареєстрований:   2021-02-03 23:11
 Розмір:   27.83 GB 
 Оцінка серіалу:   9.5/10 (Голосів: 2)
   
LesiaLesia 
Свій


З нами з: 03.05.12
Востаннє: 06.03.21
Повідомлень: 63

2021-02-03 23:17  
Цей резіл з озвученням Дніпро Фільм, але без реклами?
Anonymous 







2021-02-03 23:18  
без
з рекламою заборонено викладати на Толоці

LesiaLesia 
Свій


З нами з: 03.05.12
Востаннє: 06.03.21
Повідомлень: 63

2021-02-03 23:22  
Anonymous
Дякую)

Ваш часовий пояс: GMT + 2 Години

Нова тема   Відповісти