Вічність (Eternity) / Éternité (2016) AVC Ukr/Fre

Нові коментарі

Нова тема   Відповісти
Автор Повідомлення
Arsenfpu 
Відео Гуртом - фільмокрай
Відео Гуртом - фільмокрай


З нами з: 30.04.09
Востаннє: 08.03.21
Повідомлень: 7975

2021-02-03 21:43  
Вічність / Éternité (2016) AVC Ukr/Fre

Вічність (Eternity) / Éternité (2016) AVC Ukr/Fre


Жанр: драма
Країна: Франція, Бельгія



Кінокомпанія: Nord-Ouest Films, Pathé, Artémis Productions
Режисер: Чань Ань Хунг
Актори: Одрі Тоту, Береніс Бежо, Мелані Лоран, Жеремі Рен'є, П'єр Деладоншам, Ірен Жакоб

Сюжет:
Три покоління однієї сім'ї. Три жінки, кожна з яких проходить складний життєвий шлях, повний почуттів, емоцій, любові і втрат ... Всі вони зустрінуть справжню любов, але доля відніме її, зробивши їх вдовами. Протягом століть розгортається схожа історія. Кожній з них належить зіткнутися з бідою і зуміти пережити горе. Кожна буде справлятися по-своєму. Але всім їм належить зрозуміти, що справжня любов - вічна.


Тривалість: 01:55:05
Якість:
Відео:
кодек:
розмір кадру: 1 024 х 432
бітрейт: 2 000 кб/с

Аудіо # 1:
мова: українська
переклад: багатоголосий закадровий
кодек: 5.1
бітрейт: 384 кб/с

Аудіо # 2:
мова: французька
переклад: оригінал
кодек: 2.0
бітрейт: 192 кб/с
Скріншоти














Про файл
General
Unique ID : 39657602412295932706086341407183771879 (0x1DD5C6C234AB60A9FFBB1FADEFE098E7)
Complete name : D:\Eternity (2016) [Ukr,Fre] AVC [Hurtom].
Format :
Format version : Version 4
File size : 2.07 GiB
Duration : 1 h 55 min
Overall bit rate : 2 578 kb/s
Movie name : Вічність / Éternité (2016)
Encoded date : UTC 2021-02-23 17:37:32
Writing application : v53.0.0 ('Fool's Gold') 64-bit
Writing library : libebml v1.4.1 + v1.6.2
Cover : Yes
Attachments : cover.jpg

Video
ID : 1
Format : AVC
Format/Info : Advanced Video Codec
Format profile : [email protected]
Format settings : CABAC / 8 Ref Frames
Format settings, CABAC : Yes
Format settings, Reference : 8 frames
Codec ID : V_MPEG4/ISO/AVC
Duration : 1 h 55 min
Bit rate : 2 000 kb/s
Width : 1 024 pixels
Height : 432 pixels
Display aspect ratio : 2.40:1
Frame rate mode : Constant
Frame rate : 24.000 FPS
Color space : YUV
Chroma subsampling : 4:2:0
Bit depth : 8 bits
Scan type : Progressive
Bits/(Pixel*Frame) : 0.188
Stream size : 1.61 GiB (78%)
Writing library : core 157 r2969 d4099dd
Encoding settings : cabac=1 / ref=8 / deblock=1:-1:-1 / analyse=0x3:0x133 / me=umh / subme=10 / psy=1 / psy_rd=1.00:0.15 / mixed_ref=1 / me_range=32 / chroma_me=1 / trellis=2 / 8x8dct=1 / cqm=0 / deadzone=21,11 / fast_pskip=0 / chroma_qp_offset=-3 / threads=13 / lookahead_threads=1 / sliced_threads=0 / nr=0 / decimate=1 / interlaced=0 / bluray_compat=0 / constrained_intra=0 / bframes=3 / b_pyramid=2 / b_adapt=2 / b_bias=0 / direct=3 / weightb=1 / open_gop=0 / weightp=2 / keyint=240 / keyint_min=24 / scenecut=40 / intra_refresh=0 / rc_lookahead=60 / rc=2pass / mbtree=1 / bitrate=2000 / ratetol=1.0 / qcomp=0.60 / qpmin=0 / qpmax=69 / qpstep=4 / cplxblur=20.0 / qblur=0.5 / vbv_maxrate=31250 / vbv_bufsize=31250 / nal_hrd=none / filler=0 / ip_ratio=1.40 / aq=1:1.00
Default : Yes
Forced : No

Audio #1
ID : 2
Format : AC-3
Format/Info : Audio Coding 3
Commercial name : Dolby Digital
Codec ID : A_AC3
Duration : 1 h 55 min
Bit rate mode : Constant
Bit rate : 384 kb/s
Channel(s) : 6 channels
Channel layout : L R C LFE Ls Rs
Sampling rate : 48.0 kHz
Frame rate : 31.250 FPS (1536 SPF)
Compression mode : Lossy
Stream size : 316 MiB (15%)
Language : Ukrainian
Service kind : Complete Main
Default : Yes
Forced : Yes

Audio #2
ID : 3
Format : AC-3
Format/Info : Audio Coding 3
Commercial name : Dolby Digital
Codec ID : A_AC3
Duration : 1 h 55 min
Bit rate mode : Constant
Bit rate : 192 kb/s
Channel(s) : 2 channels
Channel layout : L R
Sampling rate : 48.0 kHz
Frame rate : 31.250 FPS (1536 SPF)
Compression mode : Lossy
Stream size : 158 MiB (7%)
Language : French
Service kind : Complete Main
Default : No
Forced : No
Джерело:
Особиста оцінка: не дивився


 Трекер:    Зареєстрований   

Завантажити / скачати фільм українською



відео для новачків



 Зареєстрований:   2021-02-23 19:45
 Розмір:   2.07 GB 
 Оцінка фільму:   9.4/10 (Голосів: 12)
   
Інші релізи
   Вічність (Eternity) / Éternité (2016) 1080p Ukr/Fre Electroz  5 / 0   10.87 GB   2021-02-06 19:19 
   Вічність (Eternity) / Éternité (2016) AngryBirdsUA  3 / 0   1.45 GB   2017-06-11 13:41 
roxj 
Свій


З нами з: 31.10.17
Востаннє: 07.03.21
Повідомлень: 72

2021-02-06 15:16  
Фільм про любов, про красиве європейське життя без турбот. Гарні краєвиди, музика Шопена, квіти, клумби, садочки з квітами, багатодітні сім'ї.
Як на мене дуже романтизовано, красиво, але з реальним життям не стикується. 2 години, дещо навіть для краси забагато.
Приємний після смак.

77997997 
VIP


З нами з: 26.02.13
Востаннє: 07.03.21
Повідомлень: 1378

2021-02-06 16:26  
Пане Arsenfpu, а чого українську доріжку 5.1 не додали?
Arsenfpu 
Відео Гуртом - фільмокрай
Відео Гуртом - фільмокрай


З нами з: 30.04.09
Востаннє: 08.03.21
Повідомлень: 7975

2021-02-06 16:28  
77997997
Бо не маю її.

Arsenfpu 
Відео Гуртом - фільмокрай
Відео Гуртом - фільмокрай


З нами з: 30.04.09
Востаннє: 08.03.21
Повідомлень: 7975

2021-02-23 19:46  
Реліз оновлено!
Змінено українську доріжку на кращу.

Ваш часовий пояс: GMT + 2 Години

Нова тема   Відповісти