Люпен (Сезон 1) / Lupin (Season 1) (2021) 720p Ukr/Eng

Нові коментарі

Нова тема   Відповісти
Автор Повідомлення
killer2015 
VIP


З нами з: 30.01.15
Востаннє: 27.02.21
Повідомлень: 375

2021-02-03 12:21  
Люпен (Сезон 1) / Lupin (Season 1) (2021) 720p Ukr/Eng

Люпен (Сезон 1) / Lupin (Season 1) (2021) 720p Ukr/Eng


Жанр: драма, комедія, кримінал, серіал
Країна: Франція



Кінокомпанія: Netflix
Режисер: Людовик Бернард, Луі Летеррьє
Актори: Омар Сі. Ніколь Ґарсія. Антуан Ґуї. Клотільда Есме. Ерве П'єр. Людівін Саньє. Ніколас Ваншицкій

Сюжет:
Ассан Діоп ще в дитинстві прочитав книгу про пригоди грабіжника Арсена Люпена і тепер збирається обчистити Лувр. Він зробить це красиво - під час аукціону, де виставляється дороге кольє. Але справа не тільки в грошах: це помста багатому сімейству, через якого 25 років тому батька Діопа незаслужено засудили за злочин.


Тривалість: 1 серія: 46:18 (цілком серій: 5)
Перелік серій
Chapter 1
Chapter 2
Chapter 3
Chapter 4
Chapter 5
Якість: 720p
Відео:
кодек:
розмір кадру: 1280 х 640
бітрейт: 3 935 кб/с

Аудіо#1:
мова: українська
переклад: багатоголосий закадровий
кодек: 5.1
бітрейт: 384 кб/с

Аудіо#2:
мова: англійська
переклад: оригінал
кодек: 5.1
бітрейт: 640 кб/с

Субтитри (Forced):
мова: українська
тип: вбудовані (жорсткі)
Info
General
Unique ID : 125521718684799997663933903642496979104 (0x5E6E9A8A0681AE6FED4B48DB9995D0A0)
Complete name : G:\Фільми\Lupin_(2021)_WEBRip_720p.5.1.Ukr\Lupin.S01E01..720p.ukr.5.1_edit.
Format :
Format version : Version 4
File size : 1.64 GiB
Duration : 46 min 19 s
Overall bit rate : 5 060 kb/s
Writing application : Lavf58.20.100
Writing library : Lavf58.20.100
ErrorDetectionType : Per level 1

Video
ID : 1
Format : AVC
Format/Info : Advanced Video Codec
Format profile : [email protected]
Format settings : CABAC / 1 Ref Frames
Format settings, CABAC : Yes
Format settings, Reference frames : 1 frame
Format settings, GOP : M=1, N=30
Codec ID : V_MPEG4/ISO/AVC
Duration : 46 min 19 s
Bit rate : 3 935 kb/s
Width : 1 280 pixels
Height : 640 pixels
Display aspect ratio : 2.000
Frame rate mode : Constant
Frame rate : 25.000 FPS
Color space : YUV
Chroma subsampling : 4:2:0
Bit depth : 8 bits
Scan type : Progressive
Bits/(Pixel*Frame) : 0.192
Stream size : 1.27 GiB (78%)
Default : Yes
Forced : No

Audio #1
ID : 2
Format : AC-3
Format/Info : Audio Coding 3
Commercial name : Dolby Digital
Codec ID : A_AC3
Duration : 46 min 19 s
Bit rate mode : Constant
Bit rate : 384 kb/s
Channel(s) : 6 channels
Channel layout : L R C LFE Ls Rs
Sampling rate : 48.0 kHz
Frame rate : 31.250 FPS (1536 SPF)
Compression mode : Lossy
Stream size : 127 MiB (8%)
Language : Ukrainian
Service kind : Complete Main
Default : Yes
Forced : No

Audio #2
ID : 3
Format : AC-3
Format/Info : Audio Coding 3
Commercial name : Dolby Digital
Codec ID : A_AC3
Duration : 46 min 18 s
Bit rate mode : Constant
Bit rate : 640 kb/s
Channel(s) : 6 channels
Channel layout : L R C LFE Ls Rs
Sampling rate : 48.0 kHz
Frame rate : 31.250 FPS (1536 SPF)
Compression mode : Lossy
Delay relative to video : 1 s 0 ms
Stream size : 212 MiB (13%)
Language : French
Service kind : Complete Main
Default : Yes
Forced : No
Скріншоти




Джерело:
Особиста оцінка: 10 - без зайвих вагань рекомендую всім!
Без реклами!


Авторський реліз (завантажувати можна без реєстрації)
 Трекер:    Зареєстрований   

Завантажити / скачати серіал українською



відео для новачків



 Зареєстрований:   2021-02-03 12:21
 Розмір:   7.91 GB 
 Оцінка серіалу:   9.8/10 (Голосів: 14)
   
Ваш часовий пояс: GMT + 2 Години

Нова тема   Відповісти