Доля: Сага Вінкс (Сезон 1) / Fate: The Winx Saga (Season 1) (2021) 1080p 2xUkr/Eng | sub Eng

Нові коментарі

Нова тема   Відповісти
Автор Повідомлення
Anonymous 







2021-02-02 21:05  
Доля: Сага Вінкс (Сезон 1) / Fate: The Winx Saga (Season 1) (2021) 1080p 2xUkr/Eng | sub Eng

Доля: Сага Вінкс (Сезон 1) / Fate: The Winx Saga (Season 1) (2021) 1080p 2xUkr/Eng | sub Eng


Жанр: фентезі, драма, пригоди
Країна: Італія, Велика Британія



Кінокомпанія: Archery Pictures, Cinesite, Rainbow S.p.A.
Режисер: Браян Янґ (Brian Young)
Актори: Ебіґейл Ковен (Abigail Cowen), Прешис Мустафа (Precious Mustapha), Еліша Епплбом (Elisha Applebaum), Денні Ґріффін (Danny Griffin) та інші

Сюжет:
Історія дорослішання п'яти юних фей, учениць школи чарівниць «Алфея» в іншому світі, де вони опановують свою магічну силу. Дівчат чекає любов і суперництво, а також смертельно небезпечні монстри.

Тривалість: 1 серія: ~50 хв. (цілком серій: 6)
Перелік серій
01) To The Waters And The Wild
02) No Strangers Here
03) Heavy Mortal Hopes
04) Some Wrecked Angel
05) Wither Into the Truth
06) A Fanatic Heart
Якість: [Netflix]
Відео:
кодек:
розмір кадру: 1920 x 1080
бітрейт: ~4000 кб/с

Аудіо # 1:
мова: українська
переклад: багатоголосий закадровий | HDrezka Studio
кодек: 5.1
бітрейт: 384 кб/с

Аудіо # 2:
мова: українська
переклад: багатоголосий закадровий | Цікава Ідея
кодек: 5.1
бітрейт: 448 кб/с

Аудіо # 3:
мова: англійська
переклад: оригінал
кодек: E- 5.1
бітрейт: 768 кб/с

Субтитри # 1 (форсовані, на текст):
мова: українська
переклад: HDrezka Studio
тип: програмні (м'які)
формат: *.srt

Субтитри # 2:
мова: англійська
тип: програмні (м'які)
формат: *.srt
Info
General
Unique ID : 152913114435301496467889064164876659552 (0x7309FE9DFA3FE90F14037D9E786CAB60)
Complete name : F:\Support\series\Fate The Winx Saga (Season 1) [, 1080p, Ukr, Eng]\Fate The Winx Saga. s01e01. To The Waters And The Wild.
Format :
Format version : Version 4
File size : 2.18 GiB
Duration : 53 min 42 s
Overall bit rate mode : Variable
Overall bit rate : 5 806 kb/s
Encoded date : UTC 2021-02-01 22:23:35
Writing application : v53.0.0 ('Fool's Gold') 64-bit
Writing library : libebml v1.4.1 + v1.6.2

Video
ID : 1
Format : AVC
Format/Info : Advanced Video Codec
Format profile : [email protected]
Format settings : CABAC / 4 Ref Frames
Format settings, CABAC : Yes
Format settings, Reference : 4 frames
Codec ID : V_MPEG4/ISO/AVC
Duration : 53 min 42 s
Bit rate mode : Variable
Bit rate : 4 214 kb/s
Maximum bit rate : 20.0 Mb/s
Width : 1 920 pixels
Height : 1 080 pixels
Display aspect ratio : 16:9
Frame rate mode : Constant
Frame rate : 24.000 FPS
Color space : YUV
Chroma subsampling : 4:2:0
Bit depth : 8 bits
Scan type : Progressive
Bits/(Pixel*Frame) : 0.085
Stream size : 1.58 GiB (73%)
Writing library : core 148 r2722 1b0121b
Encoding settings : cabac=1 / ref=4 / deblock=1:0:0 / analyse=0x3:0x111 / me=umh / subme=10 / psy=1 / psy_rd=1.00:0.00 / mixed_ref=1 / me_range=120 / chroma_me=1 / trellis=2 / 8x8dct=1 / cqm=0 / deadzone=21,11 / fast_pskip=1 / chroma_qp_offset=-2 / threads=8 / lookahead_threads=2 / sliced_threads=0 / nr=0 / decimate=1 / interlaced=0 / bluray_compat=0 / stitchable=1 / constrained_intra=0 / bframes=16 / b_pyramid=2 / b_adapt=2 / b_bias=0 / direct=3 / weightb=1 / open_gop=0 / weightp=2 / keyint=240 / keyint_min=121 / scenecut=0 / intra_refresh=0 / rc_lookahead=240 / rc=crf / mbtree=1 / crf=16.0 / qcomp=0.50 / qpmin=6 / qpmax=51 / qpstep=4 / vbv_maxrate=20000 / vbv_bufsize=25000 / crf_max=0.0 / nal_hrd=vbr / filler=0 / ip_ratio=1.40 / aq=1:0.80
Language : English
Default : Yes
Forced : No

Audio #1
ID : 2
Format : AC-3
Format/Info : Audio Coding 3
Commercial name : Dolby Digital
Codec ID : A_AC3
Duration : 52 min 17 s
Bit rate mode : Constant
Bit rate : 384 kb/s
Channel(s) : 6 channels
Channel layout : L R C LFE Ls Rs
Sampling rate : 48.0 kHz
Frame rate : 31.250 FPS (1536 SPF)
Compression mode : Lossy
Stream size : 144 MiB (6%)
Title : HDrezka Studio
Language : Ukrainian
Service kind : Complete Main
Default : Yes
Forced : No

Audio #2
ID : 3
Format : AC-3
Format/Info : Audio Coding 3
Commercial name : Dolby Digital
Codec ID : A_AC3
Duration : 53 min 42 s
Bit rate mode : Constant
Bit rate : 448 kb/s
Channel(s) : 6 channels
Channel layout : L R C LFE Ls Rs
Sampling rate : 48.0 kHz
Frame rate : 31.250 FPS (1536 SPF)
Compression mode : Lossy
Stream size : 172 MiB (8%)
Title : Цікава Ідея
Language : Ukrainian
Service kind : Complete Main
Default : No
Forced : No

Audio #3
ID : 4
Format : E-AC-3 JOC
Format/Info : Enhanced AC-3 with Joint Object Coding
Commercial name : Dolby Digital Plus with Dolby Atmos
Codec ID : A_EAC3
Duration : 53 min 42 s
Bit rate mode : Constant
Bit rate : 768 kb/s
Channel(s) : 6 channels
Channel layout : L R C LFE Ls Rs
Sampling rate : 48.0 kHz
Frame rate : 31.250 FPS (1536 SPF)
Compression mode : Lossy
Stream size : 295 MiB (13%)
Language : English
Service kind : Complete Main
Default : No
Forced : No
Complexity index : 16
Number of dynamic objects : 15
Bed channel count : 1 channel
Bed channel configuration : LFE

Text #1
ID : 5
Format : UTF-8
Codec ID : S_TEXT/UTF8
Codec ID/Info : UTF-8 Plain Text
Duration : 49 min 46 s
Bit rate : 1 b/s
Count of elements : 11
Stream size : 429 Bytes (0%)
Title : HDrezka Studio
Language : Ukrainian
Default : Yes
Forced : Yes

Text #2
ID : 6
Format : UTF-8
Codec ID : S_TEXT/UTF8
Codec ID/Info : UTF-8 Plain Text
Duration : 51 min 56 s
Bit rate : 72 b/s
Count of elements : 819
Stream size : 27.5 KiB (0%)
Language : English
Default : No
Forced : No
Скріншоти
Джерело:
Особиста оцінка: 8 - мені сподобалося





Авторський реліз (завантажувати можна без реєстрації)
 Трекер:    Зареєстрований   

Завантажити / скачати серіал українською



відео для новачків



 Зареєстрований:   2021-02-02 21:05
 Розмір:   13.18 GB 
 Оцінка серіалу:   9/10 (Голосів: 5)
   
Ваш часовий пояс: GMT + 2 Години

Нова тема   Відповісти