Палмер / Palmer (2021)

Нові коментарі

Нова тема   Відповісти
Автор Повідомлення
killer2015 
VIP


З нами з: 30.01.15
Востаннє: 28.02.21
Повідомлень: 376

2021-02-02 20:15  
Палмер / Palmer (2021)

Палмер / Palmer (2021)


Жанр: драма
Країна: США



Кінокомпанія: Rhea Films, Apple TV+
Режисер: Фішер Стівенс
Актори: Джастін Тімберлейк, Джуно Темпл, Джун Скуіб, Вінн Еверетт, Джессі Бойд, Дж.Д. Евермор, Стівен Луїс Ґраш, Ленс Е. Ніколс, Стейсі Девіс

Сюжет:
Вийшовши з в'язниці, колишня зірка шкільного американського футболу Едді Палмер повертається в рідне містечко. Хлопець сподівається налагодити своє життя, але стикається з проблемами минулого і несподівано стає наставником хлопчика, якого залишила мати.


Тривалість: 01:50:54
Якість:
Відео:
кодек:
розмір кадру: 720x300
бітрейт: 1 724 кб/с

Аудіо:
мова: українська
переклад: багатоголосий закадровий
кодек: 2.0
бітрейт: 384 кб/с
МІ
General
Complete name : G:\Фільми\Palmer.2021..400p.ukr.2.0_edit.avi
Format : AVI
Format/Info : Audio Video Interleave
File size : 1.64 GiB
Duration : 1 h 50 min
Overall bit rate : 2 119 kb/s

Video
ID : 0
Format : MPEG-4 Visual
Format profile : Advanced [email protected]
Format settings : BVOP2
Format settings, BVOP : 2
Format settings, QPel : No
Format settings, GMC : No warppoints
Format settings, Matrix : Default (H.263)
Codec ID :
Codec ID/Hint :
Duration : 1 h 50 min
Bit rate : 1 724 kb/s
Width : 720 pixels
Height : 300 pixels
Display aspect ratio : 2.40:1
Frame rate : 23.976 (24000/1001) FPS
Color space : YUV
Chroma subsampling : 4:2:0
Bit depth : 8 bits
Scan type : Progressive
Compression mode : Lossy
Bits/(Pixel*Frame) : 0.333
Stream size : 1.34 GiB (81%)
Writing library : 69

Audio
ID : 1
Format : AC-3
Format/Info : Audio Coding 3
Commercial name : Dolby Digital
Codec ID : 2000
Duration : 1 h 50 min
Bit rate mode : Constant
Bit rate : 384 kb/s
Channel(s) : 2 channels
Channel layout : L R
Sampling rate : 48.0 kHz
Frame rate : 31.250 FPS (1536 SPF)
Compression mode : Lossy
Stream size : 305 MiB (18%)
Alignment : Aligned on interleaves
Interleave, duration : 32 ms (0.77 video frame)
Service kind : Complete Main
Скріншоти




Джерело:
Без реклами!

Особиста оцінка: 0 - не дивився


 Трекер:    Зареєстрований   

Завантажити / скачати фільм українською



відео для новачків



 Зареєстрований:   2021-02-02 20:15
 Розмір:   1.64 GB 
 Оцінка фільму:   7.9/10 (Голосів: 19)
   
Інші релізи
   Палмер / Palmer (2021) UHD 4K 2160p HDR Ukr/Eng | Sub Ukr/Eng Bandit 01  9 / 0   19.97 GB   2021-02-24 17:04 
   Палмер / Palmer (2021) Kottirweil  69 / 1   1.45 GB   2021-02-04 10:52 
   Палмер / Palmer (2021) AVC Ukr/Eng | Sub Ukr/Eng Kottirweil  37 / 0   1.99 GB   2021-02-04 10:48 
   Палмер / Palmer (2021) 1080p Ukr/Eng | Sub Ukr/Eng Kottirweil  43 / 0   8.67 GB   2021-02-04 10:41 
   Палмер / Palmer (2021) 720p Eng | sub Ukr killer2015  9 / 1   2.77 GB   2021-01-31 20:14 
killer2015 
VIP


З нами з: 30.01.15
Востаннє: 28.02.21
Повідомлень: 376

2021-02-02 20:22  
Побачив анонс вже після створення релізу*** Пробач staf777 
tilda4334 
Відео Гуртом - фільмокрай
Відео Гуртом - фільмокрай


З нами з: 15.08.14
Востаннє: 01.03.21
Повідомлень: 1421

2021-02-02 21:56  
Звідки таке бажання робити неякісні реліз?
Можна ж одразу зробити все як треба. Додати повні українські субтитри, оригінальну доріжку, м'які форсовані субтитри.
Не розумію логіки.

380983801076 
Поважний учасник


З нами з: 30.03.12
Востаннє: 01.03.21
Повідомлень: 197

2021-02-03 00:41  
Бачив трейлер і коменти під ним. Не думаю, що цей фільм підійде для широкої аудиторії)))
killer2015 
VIP


З нами з: 30.01.15
Востаннє: 28.02.21
Повідомлень: 376

2021-02-03 11:31  
tilda4334

А розуміти і не потрібно. Все вищесказане + кола, кава та попкорн є у кіно.

staf777 
Відео Гуртом - підтримка та поширення
Відео Гуртом - підтримка та поширення


З нами з: 16.11.16
Востаннє: 01.03.21
Повідомлень: 5068

2021-02-04 12:15  
Цитата:
Побачив анонс вже після створення релізу*** Пробач staf777

Та нічого - дякую за реліз - мені менш роботи буде Happy

Ваш часовий пояс: GMT + 2 Години

Нова тема   Відповісти