Зоряні Війни: Війни клонів (Сезон 4) / Star Wars: The Clone Wars (Season 4) (2011) 1080p Ukr/Eng | Sub Eng

Нові коментарі

Нова тема   Відповісти
Автор Повідомлення
Argentum 
VIP


З нами з: 25.09.11
Востаннє: 11.04.21
Повідомлень: 309

2021-02-01 19:16  
Зоряні Війни: Війни клонів (Сезон 4) / Star Wars: The Clone Wars (Season 4) (2011) 1080p Ukr/Eng | Sub Eng

Зоряні Війни: Війни клонів (Сезон 4) / Star Wars: The Clone Wars (Season 4) (2011) 1080p Ukr/Eng | Sub Eng


Жанр: анімація, екшн, пригодницький, фантастика
Країна: США



Кінокомпанія: Lucasfilm
Режисер: Дейв Філоні
Актори: Метт Лантер, Ешлі Екштейн, Джеймс Арнольд Тейлор, Ді Бредлі Бейкер, Том Кейн, Ніка Футтерман, Єн Еберкромбі, Корі Бертон, Катрін Табер, Мэттью Вуд, Сэмюэл Лерой Джексон, Крістофер Лі та інші.

Сюжет:
Дія у мультсеріалі розгортаються на часовому проміжку між другим та третім епізодами фільму "Зоряні Війни". Кожна серія описує невеликий період Війн Клонів. На передових позиціях міжгалактичної війни Добра і Зла знову Енакін Скайуокер, Обі-Ван Кенобі, Падме Амідала, а також падаван Енакіна - Асока, з іншого боку їм протистоять Палпалатін, граф Дуку й генерал Грівус.


Тривалість: 1 серія: 22:00 (цілком серій: 22)
Перелік серій
4x01. Water War
4x02. Gungan Attack
4x03. Prisoners
4x04. Shadow Warrior
4x05. Mercy Mission
4x06. Nomad Droids
4x07. Darkness on Umbara
4x08. The General
4x09. Plan of Dissent
4x10. Carnage of Krell
4x11. Kidnapped
4x12. Slaves of the Republic
4x13. Escape from Kadavo
4x14. A Friend in Need
4x15. Deception
4x16. Friends and Enemies
4x17. The Box
4x18. Crisis on Naboo
4x19. Massacre
4x20. Bounty
4x21. Brothers
4x22. Revenge
Якість:
Відео:
кодек:
розмір кадру: 1920 х 816
бітрейт: ~ 5000 кб/с

Аудіо # 1:
мова: українська
переклад: багатоголосий закадровий
кодек: 2.0
бітрейт: 192 кб/с

Аудіо # 2:
мова: англійська
переклад: оригінал
кодек: 5.1
бітрейт: 640 кб/с

Субтитри:
мова: англійська
тип: програмні (м'які)
формат: *.srt
Info
General
Unique ID : 187187727218486593919219246242964732087 (0x8CD30B7F0994CAC1D296E5C96CDC78B7)
Complete name : Star.Wars.The.Clone.Wars.S04E03..1080p.Ukr.Eng.Hurtom.
Format :
Format version : Version 4
File size : 1 012 MiB
Duration : 22 min 10 s
Overall bit rate : 6 379 kb/s
Movie name : 4x03. Prisoners
Encoded date : UTC 2021-02-03 14:30:04
Writing application : v53.0.0 ('Fool's Gold') 64-bit
Writing library : libebml v1.4.1 + v1.6.2

Video
ID : 1
Format : AVC
Format/Info : Advanced Video Codec
Format profile : [email protected]
Format settings : CABAC / 4 Ref Frames
Format settings, CABAC : Yes
Format settings, Reference : 4 frames
Codec ID : V_MPEG4/ISO/AVC
Duration : 22 min 10 s
Bit rate : 5 551 kb/s
Width : 1 920 pixels
Height : 816 pixels
Display aspect ratio : 2.35:1
Frame rate mode : Constant
Frame rate : 23.976 (24000/1001) FPS
Color space : YUV
Chroma subsampling : 4:2:0
Bit depth : 8 bits
Scan type : Progressive
Bits/(Pixel*Frame) : 0.148
Stream size : 879 MiB (87%)
Title : AVC 1920*816 @ 5 551 kb/s
Writing library : core 128 r2216 198a7ea
Encoding settings : cabac=1 / ref=4 / deblock=1:0:0 / analyse=0x3:0x133 / me=umh / subme=7 / psy=1 / psy_rd=1.00:0.00 / mixed_ref=1 / me_range=16 / chroma_me=1 / trellis=1 / 8x8dct=1 / cqm=0 / deadzone=21,11 / fast_pskip=0 / chroma_qp_offset=-2 / threads=18 / lookahead_threads=3 / sliced_threads=0 / nr=0 / decimate=1 / interlaced=0 / bluray_compat=0 / constrained_intra=0 / bframes=3 / b_pyramid=2 / b_adapt=1 / b_bias=0 / direct=3 / weightb=1 / open_gop=0 / weightp=2 / keyint=250 / keyint_min=23 / scenecut=40 / intra_refresh=0 / rc_lookahead=40 / rc=2pass / mbtree=1 / bitrate=5551 / ratetol=1.0 / qcomp=0.60 / qpmin=0 / qpmax=69 / qpstep=4 / cplxblur=20.0 / qblur=0.5 / ip_ratio=1.40 / aq=1:1.00
Language : English
Default : Yes
Forced : Yes

Audio #1
ID : 2
Format : AC-3
Format/Info : Audio Coding 3
Commercial name : Dolby Digital
Codec ID : A_AC3
Duration : 22 min 9 s
Bit rate mode : Constant
Bit rate : 192 kb/s
Channel(s) : 2 channels
Channel layout : L R
Sampling rate : 48.0 kHz
Frame rate : 31.250 FPS (1536 SPF)
Compression mode : Lossy
Stream size : 30.4 MiB (3%)
Title : AC-3 2.0 @ 192 kb/s # QTV
Language : Ukrainian
Service kind : Complete Main
Default : Yes
Forced : Yes

Audio #2
ID : 3
Format : AC-3
Format/Info : Audio Coding 3
Commercial name : Dolby Digital
Codec ID : A_AC3
Duration : 22 min 10 s
Bit rate mode : Constant
Bit rate : 640 kb/s
Channel(s) : 6 channels
Channel layout : L R C LFE Ls Rs
Sampling rate : 48.0 kHz
Frame rate : 31.250 FPS (1536 SPF)
Compression mode : Lossy
Stream size : 101 MiB (10%)
Title : AC-3 5.1 @ 640 kb/s
Language : English
Service kind : Complete Main
Default : No
Forced : No

Text
ID : 4
Format : UTF-8
Codec ID : S_TEXT/UTF8
Codec ID/Info : UTF-8 Plain Text
Duration : 21 min 50 s
Bit rate : 57 b/s
Count of elements : 237
Stream size : 9.22 KiB (0%)
Title : Full
Language : English
Default : No
Forced : No
Скріншоти









За доріжку 1 подяка пану aaa4523
За інформаційне наповнення та титульний реліз подяка пану radagastr.

Джерело:
Особиста оцінка: 8 - мені сподобалося



Бронзовий реліз (на рейтинг впливає 75% завантаженого)
 Трекер:    Зареєстрований   

Завантажити / скачати мультфільм українською



відео для новачків



 Зареєстрований:   2021-02-04 18:23
 Розмір:   21.69 GB 
 Оцінка мультсеріалу:   10/10 (Голосів: 1)
   
bot 
робот


З нами з: 30.09.07
Востаннє: 26.05.05
Повідомлень: 27845

2021-02-04 18:23  
Тему перенесено з Анонси релізів до форуму Мультсеріали в HD


Argentum

Ваш часовий пояс: GMT + 2 Години

Нова тема   Відповісти