Протистояння (Сезон 1) / The Stand (Season 1) (2020-2021) 1080p Ukr/Eng | Sub Eng

Нові коментарі

Нова тема   Відповісти
Автор Повідомлення
wuzicka 
Свій


З нами з: 08.03.10
Востаннє: 28.02.21
Повідомлень: 104

2021-01-31 20:57  
Протистояння (Сезон 1) / The Stand (Season 1) (2020-2021) 1080p Ukr/Eng | Sub Eng

Протистояння (Сезон 1) / The Stand (Season 1) (2020-2021) 1080p Ukr/Eng | Sub Eng


Жанр: фантастика, трилер, драма
Країна: США



Кінокомпанія: Vertigo Entertainment, CBS Television Studios, Mosaic
Режисер: Джош Бун, Кріс Фішер, Даніель Круді та інші
Актори: Джеймс Марсден, Одесса Янг, Овен Тіг та інші

Сюжет:
Серіал за мотивами постапокаліптичного роману Стівена Кінґа, що розповідає про пандемію, яка знищила майже все населення світу, і про протистояння небагатьох вцілілих після її закінчення.


Тривалість: 1 серія: ~50:00 (цілком серій: 9)
Перелік серій
01. The End
02. Pocket Savior
03. Blank Pages
04. The House of the Dead
05. Suspicious Minds
06. The Vigil
07. The Walk
08. The Stand
09. Coda: Frannie in the Well
Якість: 1080p
Відео:
кодек:
розмір кадру: 1920x1080
бітрейт: ~5900 кб/с

Аудіо # 1:
мова: українська
переклад: багатоголосий закадровий [DniproFilm]
кодек: 5.1
бітрейт: 384 кб/с

Аудіо # 2:
мова: англійська
переклад: оригінал
кодек: E-AC 5.1
бітрейт: 640 кб/с

Субтитри # 1:
мова: українська - форсовані
тип: програмні (м'які)
формат: *.srt

Субтитри # 2:
мова: англійська
тип: програмні (м'які)
формат: *.srt
Info
General
Unique ID : 335431489770400508067081763547850585584 (0xFC59C14A8EFE87534640EBE5ADE1B5F0)
Complete name : The stand. 2020. s01.e01-07.1080p\The Stand.2020.s01e01..1080p.Ukr.Eng.
Format :
Format version : Version 4
File size : 2.83 GiB
Duration : 59 min 6 s
Overall bit rate : 6 863 kb/s
Encoded date : UTC 2021-01-31 18:24:16
Writing application : v53.0.0 ('Fool's Gold') 64-bit
Writing library : libebml v1.4.1 + v1.6.2

Video
ID : 1
Format : AVC
Format/Info : Advanced Video Codec
Format profile : [email protected]
Format settings : CABAC / 4 Ref Frames
Format settings, CABAC : Yes
Format settings, ReFrames : 4 frames
Codec ID : V_MPEG4/ISO/AVC
Duration : 59 min 6 s
Bit rate mode : Constant
Bit rate : 5 836 kb/s
Nominal bit rate : 10 000 kb/s
Width : 1 920 pixels
Height : 1 080 pixels
Display aspect ratio : 16:9
Frame rate mode : Constant
Frame rate : 24.000 FPS
Color space : YUV
Chroma subsampling : 4:2:0
Bit depth : 8 bits
Scan type : Progressive
Bits/(Pixel*Frame) : 0.117
Stream size : 2.41 GiB (85%)
Language : English
Default : Yes
Forced : No
Color range : Limited
Color primaries : BT.709
Transfer characteristics : BT.709
Matrix coefficients : BT.709

Audio #1
ID : 2
Format : AC-3
Format/Info : Audio Coding 3
Commercial name : Dolby Digital
Codec ID : A_AC3
Duration : 59 min 6 s
Bit rate mode : Constant
Bit rate : 384 kb/s
Channel(s) : 6 channels
Channel layout : L R C LFE Ls Rs
Sampling rate : 48.0 kHz
Frame rate : 31.250 FPS (1536 SPF)
Bit depth : 16 bits
Compression mode : Lossy
Stream size : 162 MiB (6%)
Title : DD 5.1 @ 384 kbps - DniproFilm
Language : Ukrainian
Service kind : Complete Main
Default : Yes
Forced : No

Audio #2
ID : 3
Format : E-AC-3
Format/Info : Enhanced AC-3
Commercial name : Dolby Digital Plus
Codec ID : A_EAC3
Duration : 59 min 6 s
Bit rate mode : Constant
Bit rate : 640 kb/s
Channel(s) : 6 channels
Channel layout : L R C LFE Ls Rs
Sampling rate : 48.0 kHz
Frame rate : 31.250 FPS (1536 SPF)
Compression mode : Lossy
Stream size : 271 MiB (9%)
Title : E- @ 640 kbps - Original
Language : English
Service kind : Complete Main
Default : No
Forced : No

Text #1
ID : 4
Format : UTF-8
Codec ID : S_TEXT/UTF8
Codec ID/Info : UTF-8 Plain Text
Duration : 54 min 5 s
Bit rate : 0 b/s
Count of elements : 7
Stream size : 342 Bytes (0%)
Title : Text only
Language : Ukrainian
Default : Yes
Forced : Yes

Text #2
ID : 5
Format : UTF-8
Codec ID : S_TEXT/UTF8
Codec ID/Info : UTF-8 Plain Text
Duration : 58 min 35 s
Bit rate : 71 b/s
Count of elements : 1020
Stream size : 30.5 KiB (0%)
Title : SDH
Language : English
Default : No
Forced : No
Скріншоти


Джерело:
Особиста оцінка: 8 - мені сподобалося


Авторський реліз (завантажувати можна без реєстрації)
 Трекер:    Зареєстрований   

Завантажити / скачати серіал українською



відео для новачків



 Зареєстрований:   2021-02-13 23:14
 Розмір:   25.86 GB 
 Оцінка серіалу:   8.4/10 (Голосів: 7)
   
wuzicka 
Свій


З нами з: 08.03.10
Востаннє: 28.02.21
Повідомлень: 104

2021-02-07 16:00  
додано 8-му серію!
приємного перегляду

Roman7Fedorak 
Поважний учасник


З нами з: 30.03.12
Востаннє: 28.02.21
Повідомлень: 160

2021-02-07 19:47  
Дякую )
apkc 
Новенький


З нами з: 15.11.16
Востаннє: 01.03.21
Повідомлень: 18

2021-02-11 15:10  
Дякую :-) А 9-ту серію, доп що виходить сьогодні, перекладати будете чи ні?
wuzicka 
Свій


З нами з: 08.03.10
Востаннє: 28.02.21
Повідомлень: 104

2021-02-13 21:56  
додано 9-ту серію
mu4a4i 
Частий відвідувач


З нами з: 05.11.10
Востаннє: 28.02.21
Повідомлень: 38

2021-02-15 11:49  
Вже має бути цілком серій: 9
wuzicka 
Свій


З нами з: 08.03.10
Востаннє: 28.02.21
Повідомлень: 104

2021-02-15 15:08  
дякую.
виправив

SHEVA2018 
Свій


З нами з: 24.09.18
Востаннє: 28.02.21
Повідомлень: 62

2021-02-20 07:57  
Не найкраща екранізація по Кінгу! Міні-серіал 94го року був цікавіше!! Треба книгу прочитати, щоб зрузуміти де екранізовано краще. Ну не може Рендалл Флегг стояти і дивитися як все руйнується!! Дурість!! Де тут Протистояння я так і не побачив! Курвисько Ембер Херд взяли якраз на роль саме для неї! сподіваюся скоро зникне з єкранів повністю!!! Остання серія взагалі хрінь! Коротше кажучи один раз побачити і забути! Краще передивитися Зелену Милю чи Втеча з Шоушенку!!!
Ваш часовий пояс: GMT + 2 Години

Нова тема   Відповісти