Палмер / Palmer (2021) 720p Eng | sub Ukr

Нові коментарі

Нова тема   Відповісти
Автор Повідомлення
killer2015 
VIP


З нами з: 30.01.15
Востаннє: 25.02.21
Повідомлень: 375

2021-01-31 20:14  
Палмер / Palmer (2021) 720p Eng | sub Ukr

Палмер / Palmer (2021) 720p Eng | sub Ukr


Жанр: драма
Країна: США



Кінокомпанія: Rhea Films, Apple TV+
Режисер: Фішер Стівенс
Актори: Джастін Тімберлейк, Джуно Темпл, Джун Скуіб, Вінн Еверетт, Джессі Бойд, Дж.Д. Евермор, Стівен Луїс Ґраш, Ленс Е. Ніколс, Стейсі Девіс

Сюжет:
Вийшовши з в'язниці, колишня зірка шкільного американського футболу Едді Палмер повертається в рідне містечко. Хлопець сподівається налагодити своє життя, але стикається з проблемами минулого і несподівано стає наставником хлопчика, якого залишила мати.


Тривалість: 01:50:54
Якість: 720p
Відео:
кодек:
розмір кадру: 1484x618
бітрейт: 2 804 кб/с

Аудіо:
мова: англійська
переклад: оригінал
кодек: E- 5.1
бітрейт: 768 кб/с

Субтитри:
мова: українська (офіційні - Анастасія Жищинська)
тип: програмні (м'які)
формат: *.srt
МІ
General
Unique ID : 231401433731550950605359236020749568622 (0xAE164B87BA0127E85E03E5DF4A618A6E)
Complete name : G:\Фільми\Palmer.2021. 720p.Sub.Ukr\Palmer.2021. 720p.Sub.Ukr.
Format :
Format version : Version 4
File size : 2.77 GiB
Duration : 1 h 50 min
Overall bit rate : 3 574 kb/s
Encoded date : UTC 2021-01-31 18:01:51
Writing application : v47.0.0 ('Black Flag') 64-bit
Writing library : libebml v1.3.10 + v1.5.2

Video
ID : 1
Format : AVC
Format/Info : Advanced Video Codec
Format profile : [email protected]
Format settings : CABAC / 5 Ref Frames
Format settings, CABAC : Yes
Format settings, Reference frames : 5 frames
Codec ID : V_MPEG4/ISO/AVC
Duration : 1 h 50 min
Bit rate : 2 804 kb/s
Width : 1 484 pixels
Height : 618 pixels
Display aspect ratio : 2.40:1
Frame rate mode : Constant
Frame rate : 23.976 (24000/1001) FPS
Color space : YUV
Chroma subsampling : 4:2:0
Bit depth : 8 bits
Scan type : Progressive
Bits/(Pixel*Frame) : 0.128
Stream size : 2.17 GiB (78%)
Language : English
Default : Yes
Forced : No
Color range : Limited
Color primaries : BT.709
Transfer characteristics : BT.709
Matrix coefficients : BT.709

Audio
ID : 2
Format : E-AC-3 JOC
Format/Info : Enhanced AC-3 with Joint Object Coding
Commercial name : Dolby Digital Plus with Dolby Atmos
Codec ID : A_EAC3
Duration : 1 h 50 min
Bit rate mode : Constant
Bit rate : 768 kb/s
Channel(s) : 6 channels
Channel layout : L R C LFE Ls Rs
Sampling rate : 48.0 kHz
Frame rate : 31.250 FPS (1536 SPF)
Compression mode : Lossy
Stream size : 609 MiB (21%)
Language : English
Service kind : Complete Main
Default : Yes
Forced : No
Complexity index : 16
Number of dynamic objects : 15
Bed channel count : 1 channel
Bed channel configuration : LFE
Скріншоти





Джерело:
Особиста оцінка: 0 - не дивився


 Трекер:    Зареєстрований   

Завантажити / скачати фільм українською



відео для новачків



 Зареєстрований:   2021-01-31 20:14
 Розмір:   2.77 GB 
 Оцінка фільму:   8.7/10 (Голосів: 14)
   
Інші релізи
   Палмер / Palmer (2021) UHD 4K 2160p HDR Ukr/Eng | Sub Ukr/Eng Bandit 01  2 / 1   19.97 GB   2021-02-24 17:04 
   Палмер / Palmer (2021) Kottirweil  78 / 0   1.45 GB   2021-02-04 10:52 
   Палмер / Palmer (2021) AVC Ukr/Eng | Sub Ukr/Eng Kottirweil  42 / 0   1.99 GB   2021-02-04 10:48 
   Палмер / Palmer (2021) 1080p Ukr/Eng | Sub Ukr/Eng Kottirweil  47 / 2   8.67 GB   2021-02-04 10:41 
   Палмер / Palmer (2021) killer2015  20 / 0   1.64 GB   2021-02-02 20:15 
killer2015 
VIP


З нами з: 30.01.15
Востаннє: 25.02.21
Повідомлень: 375

2021-01-31 20:15  

troubless 
Свій


З нами з: 14.06.11
Востаннє: 25.02.21
Повідомлень: 57

2021-01-31 22:59  
killer2015, навіщо видаляти оригінальні субтитри?
killer2015 
VIP


З нами з: 30.01.15
Востаннє: 25.02.21
Повідомлень: 375

2021-02-01 11:22  
troubless написано:
навіщо видаляти оригінальні субтитри?


А навіщо вони без озвучення? Як на мене вони зайві)

bstefanyshyn 
Частий відвідувач


З нами з: 02.02.12
Востаннє: 22.02.21
Повідомлень: 31

2021-02-07 19:24  
killer2015 написано:
А навіщо вони без озвучення? Як на мене вони зайві)


Я теж дивлюсь усі фільми в оригіналі з англійськими субтитрами. Тому якщо можливо - поверніть їх будь ласка.

Дякую за старання.

UPD: Хоча не переймайтесь, на Толоці є інші релізи цього фільму з ориг. сабами.

Ваш часовий пояс: GMT + 2 Години

Нова тема   Відповісти