Ліга Європи УЄФА 2016/17 | Гент - Шахтар | Груповий етап, 4 тур | Футбол 3 (2016) IPTV

Нові коментарі

Нова тема   Відповісти
Автор Повідомлення
misamisk 
Поважний учасник


З нами з: 16.10.17
Востаннє: 27.02.21
Повідомлень: 157

2021-01-30 20:53  
Ліга Європи УЄФА 2016/17 | Гент - Шахтар | Груповий етап, 4 тур | Футбол 3 (2016) IPTV

Ліга Європи УЄФА 2016/17 | Гент - Шахтар | Груповий етап, 4 тур | Футбол 3 (2016) IPTV


Телеканал: Футбол 3
Опис:
Матч відбувся 03 листопада 2016 року у Генті на "Гент Стедіум".

Матч обслуговували:

Рефері: Олексій Кульбяков (Білорусь)
Асистенти рефері: Дмитро Жук (Білорусь), Олег Маслянко (Білорусь)
Четвертий арбітр: Юрій Хомченко (Білорусь)

Додаткові асистенти арбітра: Денис Щербаков (Білорусь), Віктор Шимусик (Білорусь)


Тривалість: 01:45:19
Якість:
Відео:
кодек:
розмір кадру: 1920 x 1080
бітрейт: ~3500 кб/с

Аудіо:
мова: українська
переклад: одноголосий закадровий | Кирило Круторогов
кодек: 2.0
бітрейт: 129 кб/с
Стартові склади
Info
Код:
General
Unique ID                                : 185412305245557716132123759590999912559 (0x8B7D1C6F483160C2E74A6ECDC728F06F)
Complete name                            : UEFA.Europa.League.2016-2017.Group.Stage.Matchday.4.KAA.Gent-FC.Shakhtar.Donetsk.IPTV.
Format                                   :
Format version                           : Version 4
File size                                : 2.67 GiB
Duration                                 : 1 h 45 min
Overall bit rate                         : 3 625 kb/s
Movie name                               : UEFA Europa League 2016/17. Group Stage. Matchday 4. KAA Gent - FC Shakhtar Donetsk
Encoded date                             : UTC 2021-01-30 09:00:35
Writing application                      : v24.0.0 ('Beyond The Pale') 64-bit
Writing library                          : libebml v1.3.6 + v1.4.9

Video
ID                                       : 1
Format                                   : AVC
Format/Info                              : Advanced Video Codec
Format profile                           : [email protected]
Format settings                          : CABAC / 2 Ref Frames
Format settings, CABAC                   : Yes
Format settings, Reference frames        : 2 frames
Format settings, GOP                     : M=3, N=25
Codec ID                                 : V_MPEG4/ISO/AVC
Duration                                 : 1 h 45 min
Bit rate                                 : 3 494 kb/s
Nominal bit rate                         : 2 327 kb/s
Width                                    : 1 920 pixels
Height                                   : 1 080 pixels
Display aspect ratio                     : 16:9
Frame rate mode                          : Constant
Frame rate                               : 25.000 FPS
Color space                              : YUV
Chroma subsampling                       : 4:2:0
Bit depth                                : 8 bits
Scan type                                : Progressive
Bits/(Pixel*Frame)                       : 0.067
Stream size                              : 2.57 GiB (96%)
Title                                    : UEFA Europa League 2016/17. Group Stage. Matchday 4. KAA Gent - FC Shakhtar Donetsk
Writing library                          : core 160 r3000
Encoding settings                        : cabac=1 / ref=2 / deblock=1:0:0 / analyse=0x3:0x113 / me=hex / subme=4 / psy=1 / psy_rd=1.00:0.00 / mixed_ref=0 / me_range=16 / chroma_me=1 / trellis=1 / 8x8dct=1 / cqm=0 / deadzone=21,11 / fast_pskip=1 / chroma_qp_offset=0 / threads=2 / lookahead_threads=1 / sliced_threads=0 / nr=0 / decimate=1 / interlaced=0 / bluray_compat=0 / constrained_intra=0 / bframes=3 / b_pyramid=2 / b_adapt=1 / b_bias=0 / direct=1 / weightb=1 / open_gop=0 / weightp=1 / keyint=25 / keyint_min=2 / scenecut=0 / intra_refresh=0 / rc_lookahead=20 / rc=abr / mbtree=1 / bitrate=2327 / ratetol=1.0 / qcomp=0.60 / qpmin=0 / qpmax=69 / qpstep=4 / vbv_maxrate=24999 / vbv_bufsize=4687 / nal_hrd=none / filler=0 / ip_ratio=1.40 / aq=1:1.00
Language                                 : English
Default                                  : Yes
Forced                                   : No

Audio
ID                                       : 2
Format                                   : LC
Format/Info                              : Advanced Audio Codec Low Complexity
Codec ID                                 : A_AAC-2
Duration                                 : 1 h 45 min
Bit rate                                 : 129 kb/s
Channel(s)                               : 2 channels
Channel layout                           : L R
Sampling rate                            : 48.0 kHz
Frame rate                               : 46.875 FPS (1024 SPF)
Compression mode                         : Lossy
Stream size                              : 97.0 MiB (4%)
Title                                    : Commentaries by Kyrylo Krutorohov
Language                                 : Ukrainian
Default                                  : Yes
Forced                                   : No

Menu
00:00:00.000                             : en:Intro
00:02:30.000                             : en:Lineups
00:04:30.000                             : en:Half 1
00:52:22.464                             : en:Half 2
Скріншоти
Примітка. Сімнадцята хвилина матчу була вирізана із запису матчу транслятором і відсутня у даному релізі з не залежних від мене причин

Особиста оцінка: 10 - без зайвих вагань рекомендую всім!


Золотий реліз (завантажене не впливає на рейтинг)
 Трекер:    Зареєстрований   

Завантажити / скачати торрент



відео для новачків



 Зареєстрований:   2021-01-30 20:53
 Розмір:   2.67 GB 
 Оцінка:   9.7/10 (Голосів: 3)
   
601сан 
VIP


З нами з: 22.05.12
Востаннє: 28.02.21
Повідомлень: 351

2021-01-30 21:05  
Перегляну із задоволенням.
Дякую 10/10.

misamisk 
Поважний учасник


З нами з: 16.10.17
Востаннє: 27.02.21
Повідомлень: 157

2021-01-30 21:26  
601сан
Не зовсім ретро, але все ж архівний матеріал

misamisk 
Поважний учасник


З нами з: 16.10.17
Востаннє: 27.02.21
Повідомлень: 157

2021-02-03 18:18  
На жаль, поки що я вимушений тимчасово припинити релізи ретро-матчів та взагалі будь-яку активну релізерську діяльність у зв'язку з браком часу а також вільного місця на диску. Дякую за розуміння.
601сан 
VIP


З нами з: 22.05.12
Востаннє: 28.02.21
Повідомлень: 351

2021-02-03 19:05  
misamisk
Дякую Вам за релізи!!!
Чекатиму продовження.

601сан 
VIP


З нами з: 22.05.12
Востаннє: 28.02.21
Повідомлень: 351

2021-02-05 16:27  
Наступного тижня "Футбол 3" показуватиме першу Лігу чемпіонів "Шахтаря" сезон 2000/01.
Було б добре мати у колекції. Може хто візьметься?

Ваш часовий пояс: GMT + 2 Години

Нова тема   Відповісти