Коти-аристократи / The AristoCats (1970) AVC 2xUkr/Eng | sub Ukr/Eng

Нові коментарі

Нова тема   Відповісти
Автор Повідомлення
Arsenfpu 
Відео Гуртом - фільмокрай
Відео Гуртом - фільмокрай


З нами з: 30.04.09
Востаннє: 17.04.21
Повідомлень: 8150

2021-01-30 21:33  
Коти-аристократи / The AristoCats (1970) AVC 2xUkr/Eng | sub Ukr/Eng

Коти-аристократи / The AristoCats (1970) AVC 2xUkr/Eng | sub Ukr/Eng


Жанр: омедія, мюзикл, пригоди, сімейний, мультфільм
Країна: США



Кінокомпанія: Walt Disney Productions
Режисер: Вольфґанґ Райтерман
Ролі озвучують: Філ Гарріс, Ева Габор, Стерлінг Голлоуей, Скетмен Крозерс, Дін Кларк

Сюжет:
аристократичному будинку в Парижі, живе мама-кішка зі своїми кошенятами. Власниця їх просто обожнює і за заповітом весь спадок має відійти цим чарівним створінням. Але лихий дворецький хоче, щоб гроші дісталися тільки йому.


Тривалість: 01:18:27
Якість:
Відео:
кодек:
розмір кадру: 1 024 х 608
бітрейт: 2 399 кб/с

Аудіо # 1:
мова: українська
переклад: професійний дубльований Омікрон
кодек: 5.1
бітрейт: 448 кб/с

Аудіо # 2:
мова: українська
переклад: професійний дубльований LeDoyen
кодек: 2.0
бітрейт: 192 кб/с

Аудіо # 3:
мова: англійська
переклад: оригінал
кодек: 2.0
бітрейт: 192 кб/с

Субтитри:
мова: українська
тип: програмні (м'які)
формат: *.srt

Субтитри:
мова: англійська
тип: програмні (м'які)
формат: *.srt
Скріншоти














Про файл
General
Unique ID : 234715605178257722032290352344589260885 (0xB09494CC53A1D12665FE497D43B1D855)
Complete name : D:\The AristoCats (1970) [2xUkr,Eng] AVC [Hurtom].
Format :
Format version : Version 4
File size : 1.77 GiB
Duration : 1 h 18 min
Overall bit rate : 3 235 kb/s
Movie name : Коти-аристократи / The AristoCats (1970)
Encoded date : UTC 2021-01-30 18:25:25
Writing application : v21.0.0 ('Tardigrades Will Inherit The Earth') 32-bit
Writing library : libebml v1.3.5 + v1.4.8
Cover : Yes
Attachments : cover.jpg

Video
ID : 1
Format : AVC
Format/Info : Advanced Video Codec
Format profile : [email protected]
Format settings : CABAC / 8 Ref Frames
Format settings, CABAC : Yes
Format settings, Reference : 8 frames
Codec ID : V_MPEG4/ISO/AVC
Duration : 1 h 18 min
Bit rate : 2 399 kb/s
Width : 1 024 pixels
Height : 608 pixels
Display aspect ratio : 5:3
Frame rate mode : Constant
Frame rate : 23.976 (24000/1001) FPS
Color space : YUV
Chroma subsampling : 4:2:0
Bit depth : 8 bits
Scan type : Progressive
Bits/(Pixel*Frame) : 0.161
Stream size : 1.32 GiB (74%)
Writing library : core 157 r2969 d4099dd
Encoding settings : cabac=1 / ref=8 / deblock=1:-1:-1 / analyse=0x3:0x133 / me=umh / subme=10 / psy=1 / psy_rd=1.00:0.15 / mixed_ref=1 / me_range=32 / chroma_me=1 / trellis=2 / 8x8dct=1 / cqm=0 / deadzone=21,11 / fast_pskip=0 / chroma_qp_offset=-3 / threads=19 / lookahead_threads=1 / sliced_threads=0 / nr=0 / decimate=1 / interlaced=0 / bluray_compat=0 / constrained_intra=0 / bframes=3 / b_pyramid=2 / b_adapt=2 / b_bias=0 / direct=3 / weightb=1 / open_gop=0 / weightp=2 / keyint=240 / keyint_min=23 / scenecut=40 / intra_refresh=0 / rc_lookahead=60 / rc=2pass / mbtree=1 / bitrate=2399 / ratetol=1.0 / qcomp=0.60 / qpmin=0 / qpmax=69 / qpstep=4 / cplxblur=20.0 / qblur=0.5 / vbv_maxrate=31250 / vbv_bufsize=31250 / nal_hrd=none / filler=0 / ip_ratio=1.40 / aq=1:1.00
Default : Yes
Forced : No

Audio #1
ID : 2
Format : AC-3
Format/Info : Audio Coding 3
Commercial name : Dolby Digital
Codec ID : A_AC3
Duration : 1 h 18 min
Bit rate mode : Constant
Bit rate : 448 kb/s
Channel(s) : 6 channels
Channel layout : L R C LFE Ls Rs
Sampling rate : 48.0 kHz
Frame rate : 31.250 FPS (1536 SPF)
Compression mode : Lossy
Stream size : 251 MiB (14%)
Title : Омікрон
Language : Ukrainian
Service kind : Complete Main
Default : Yes
Forced : No

Audio #2
ID : 3
Format : AC-3
Format/Info : Audio Coding 3
Commercial name : Dolby Digital
Codec ID : A_AC3
Duration : 1 h 18 min
Bit rate mode : Constant
Bit rate : 192 kb/s
Channel(s) : 2 channels
Channel layout : L R
Sampling rate : 48.0 kHz
Frame rate : 31.250 FPS (1536 SPF)
Compression mode : Lossy
Stream size : 108 MiB (6%)
Title : LeDoyen
Language : Ukrainian
Service kind : Complete Main
Default : No
Forced : No

Audio #3
ID : 4
Format : AC-3
Format/Info : Audio Coding 3
Commercial name : Dolby Digital
Codec ID : A_AC3
Duration : 1 h 18 min
Bit rate mode : Constant
Bit rate : 192 kb/s
Channel(s) : 2 channels
Channel layout : L R
Sampling rate : 48.0 kHz
Frame rate : 31.250 FPS (1536 SPF)
Compression mode : Lossy
Stream size : 108 MiB (6%)
Language : English
Service kind : Complete Main
Default : No
Forced : No

Text #1
ID : 5
Format : UTF-8
Codec ID : S_TEXT/UTF8
Codec ID/Info : UTF-8 Plain Text
Duration : 1 h 18 min
Bit rate : 89 b/s
Count of elements : 1043
Stream size : 51.3 KiB (0%)
Language : Ukrainian
Default : Yes
Forced : No

Text #2
ID : 6
Format : UTF-8
Codec ID : S_TEXT/UTF8
Codec ID/Info : UTF-8 Plain Text
Duration : 1 h 18 min
Bit rate : 93 b/s
Count of elements : 1261
Stream size : 53.6 KiB (0%)
Language : English
Default : No
Forced : No

Text #3
ID : 7
Format : UTF-8
Codec ID : S_TEXT/UTF8
Codec ID/Info : UTF-8 Plain Text
Duration : 1 h 18 min
Bit rate : 81 b/s
Count of elements : 1036
Stream size : 46.6 KiB (0%)
Language : English
Default : No
Forced : No
Джерело:
Особиста оцінка: не дивився


Авторський реліз (завантажувати можна без реєстрації)
 Трекер:    Зареєстрований   

Завантажити / скачати мультфільм українською



відео для новачків



 Зареєстрований:   2021-01-30 21:33
 Розмір:   1.77 GB 
 Оцінка мультфільму:   9.8/10 (Голосів: 12)
   
Інші релізи
21jumpstreet 
VIP


З нами з: 03.07.12
Востаннє: 17.04.21
Повідомлень: 1823

2021-01-30 21:34  
Як там з якістю у другому дубляжі? Звук норм?
Arsenfpu 
Відео Гуртом - фільмокрай
Відео Гуртом - фільмокрай


З нами з: 30.04.09
Востаннє: 17.04.21
Повідомлень: 8150

2021-01-30 21:42  
21jumpstreet
Цілком.

Ваш часовий пояс: GMT + 2 Години

Нова тема   Відповісти