Ґайвер / The Guyver (1991) 720p Eng | Sub Ukr/Eng

Нові коментарі

Нова тема   Відповісти
Автор Повідомлення
besconst 
Свій


З нами з: 10.03.12
Востаннє: 16.04.21
Повідомлень: 72

2021-01-30 21:10  
Ґайвер / The Guyver (1991) 720p Eng | Sub Ukr/Eng

Ґайвер / The Guyver (1991) 720p Eng | Sub Ukr/Eng


Жанр: фантастика, бойовик, комедія
Країна: США, Японія



Кінокомпанія: New Line Cinema
Режисер: Скрімін Мед Джордж, Стів Венґ
Актори: Джек Армстронґ, Марк Гемілл, Джиммі Вокер, Спайс Вільямс, Майкл Берріман

Сюжет:
Інопланетяни прибули на Землю, щоб створити нову органічну зброю — людей. Вони імплантують в них додатковий ген, який перетворює їх на непереможних монстрів. Тільки альтернативна зброя — «Ґайвер» може протистояти поневоленню. «Ґайвер» являє собою біокостюм, який стократно збільшує прудкість і силу носія. Випадковим володарем «Ґайвера» стає звичайний студент, що вивчає айкідо. Тепер він має завадити корпорації "Кронос", на чолі з Зоалордом, відібрати Ґайвера, щоб запанувати світом.


Тривалість: 01:32:27
Якість: 720p
Відео:
кодек:
розмір кадру: 1280 х 720
бітрейт: 5962 кб/с

Аудіо:
мова: англійська
переклад: оригінал
кодек: 5.1
бітрейт: 448 кб/с

Субтитри # 1:
мова: англійська
тип: програмні (м'які)
формат: *.srt

Субтитри # 2:
мова: українська
переклад: авторський besconst
тип: програмні (м'які)
формат: *.srt
Info
General
Unique ID : 231793270728390859371419150028497433077 (0xAE61C295EF5C21615BAF51B90AFB31F5)
Complete name : D:\Movies\Guyver (1991) [720p].
Format :
Format version : Version 4 / Version 2
File size : 4.14 GiB
Duration : 1 h 32 min
Overall bit rate : 6 411 kb/s
Encoded date : UTC 2021-01-30 17:39:29
Writing application : v20.0.0 ('I Am The Sun') 64-bit
Writing library : libebml v1.3.5 + v1.4.8
Cover : Yes
Attachments : cover.jpg

Video
ID : 1
Format : AVC
Format/Info : Advanced Video Codec
Format profile : [email protected]
Format settings, CABAC : Yes
Format settings, ReFrames : 9 frames
Codec ID : V_MPEG4/ISO/AVC
Duration : 1 h 32 min
Bit rate : 5 962 kb/s
Width : 1 280 pixels
Height : 720 pixels
Display aspect ratio : 16:9
Frame rate mode : Constant
Frame rate : 23.976 (24000/1001) FPS
Color space : YUV
Chroma subsampling : 4:2:0
Bit depth : 8 bits
Scan type : Progressive
Bits/(Pixel*Frame) : 0.270
Stream size : 3.85 GiB (93%)
Writing library : core 146 r0+2586 e393126 t_mod_Custom [[email protected] X86_64]
Encoding settings : cabac=1 / ref=9 / deblock=1:-3:-3 / analyse=0x3:0x133 / me=umh / subme=10 / psy=1 / fade_compensate=0.00 / psy_rd=1.00:0.05 / mixed_ref=1 / me_range=24 / chroma_me=1 / trellis=2 / 8x8dct=1 / cqm=0 / deadzone=21,11 / fast_pskip=0 / chroma_qp_offset=-3 / threads=6 / lookahead_threads=1 / sliced_threads=0 / nr=0 / decimate=1 / interlaced=0 / bluray_compat=0 / constrained_intra=0 / fgo=0 / bframes=12 / b_pyramid=2 / b_adapt=2 / b_bias=0 / direct=3 / weightb=1 / open_gop=0 / weightp=2 / keyint=250 / keyint_min=23 / scenecut=40 / intra_refresh=0 / rc_lookahead=60 / rc=crf / mbtree=0 / crf=17.0000 / qcomp=0.70 / qpmin=0:0:0 / qpmax=69:69:69 / qpstep=4 / vbv_maxrate=62500 / vbv_bufsize=78125 / crf_max=0.0 / nal_hrd=none / filler=0 / ip_ratio=1.40 / pb_ratio=1.30 / aq=1:0.65 / aq-sensitivity=10.00 / aq-factor=1.00:1.00:1.00 / aq2=0 / aq3=0
Language : English
Default : No
Forced : No
Color range : Limited
Color primaries : BT.709
Transfer characteristics : BT.709
Matrix coefficients : BT.709

Audio
ID : 2
Format : AC-3
Format/Info : Audio Coding 3
Mode extension : CM (complete main)
Format settings, Endianness : Big
Codec ID : A_AC3
Duration : 1 h 32 min
Bit rate mode : Constant
Bit rate : 448 kb/s
Channel(s) : 6 channels
Channel positions : Front: L C R, Side: L R, LFE
Sampling rate : 48.0 kHz
Frame rate : 31.250 FPS (1536 spf)
Bit depth : 16 bits
Compression mode : Lossy
Stream size : 296 MiB (7%)
Title : оригинал
Language : English
Default : No
Forced : No

Text #1
ID : 3
Format : UTF-8
Codec ID : S_TEXT/UTF8
Codec ID/Info : UTF-8 Plain Text
Duration : 1 h 28 min
Bit rate : 35 b/s
Count of elements : 888
Stream size : 22.8 KiB (0%)
Title : original
Language : English
Default : No
Forced : No

Text #2
ID : 4
Format : UTF-8
Codec ID : S_TEXT/UTF8
Codec ID/Info : UTF-8 Plain Text
Duration : 1 h 32 min
Bit rate : 58 b/s
Count of elements : 935
Stream size : 39.9 KiB (0%)
Language : Ukrainian
Default : Yes
Forced : Yes

Menu
00:00:00.000 : en:00:00:00.000
00:00:00.375 : en:00:00:00.375
00:12:43.429 : en:00:12:43.429
00:25:54.845 : en:00:25:54.845
00:42:10.862 : en:00:42:10.862
01:00:27.290 : en:01:00:27.290
01:12:12.828 : en:01:12:12.828
01:22:17.224 : en:01:22:17.224
01:29:49.801 : en:01:29:49.801
Скріншоти
Джерело відеоряду:
Особиста оцінка: 8 - мені сподобалося, ностальгія


Золотий реліз (завантажене не впливає на рейтинг)
 Трекер:    Зареєстрований   

Завантажити / скачати фільм українською



відео для новачків



 Зареєстрований:   2021-01-30 21:10
 Розмір:   4.14 GB 
 Оцінка фільму:   10/10 (Голосів: 4)
   
Ваш часовий пояс: GMT + 2 Години

Нова тема   Відповісти