Зоряні Війни: Війни клонів (Сезон 3) / Star Wars: The Clone Wars (Season 3) (2010) 1080p Ukr/Eng | Sub Eng

Нові коментарі

Нова тема   Відповісти
Автор Повідомлення
Argentum 
VIP


З нами з: 25.09.11
Востаннє: 20.04.21
Повідомлень: 309

2021-01-30 17:07  
Зоряні Війни: Війни клонів (Сезон 3) / Star Wars: The Clone Wars (Season 3) (2010) 1080p Ukr/Eng | Sub Eng

Зоряні Війни: Війни клонів (Сезон 3) / Star Wars: The Clone Wars (Season 3) (2010) 1080p Ukr/Eng | Sub Eng


Жанр: анімація, екшн, пригодницький, фантастика
Країна: США



Кінокомпанія: Lucasfilm
Режисер: Дейв Філоні
Актори: Метт Лантер, Ешлі Екштейн, Джеймс Арнольд Тейлор, Ді Бредлі Бейкер, Том Кейн, Ніка Футтерман, Єн Еберкромбі, Корі Бертон, Катрін Табер, Мэттью Вуд, Сэмюэл Лерой Джексон, Крістофер Лі та інші.

Сюжет:
Дія у мультсеріалі розгортаються на часовому проміжку між другим та третім епізодами фільму "Зоряні Війни". Кожна серія описує невеликий період Війн Клонів. На передових позиціях міжгалактичної війни Добра і Зла знову Енакін Скайуокер, Обі-Ван Кенобі, Падме Амідала, а також падаван Енакіна - Асока, з іншого боку їм протистоять Палпалатін, граф Дуку й генерал Грівус.


Тривалість: 1 серія: 22:00 (цілком серій: 22)
Перелік серій
3x01. Clone Cadets
3x02. ARC Troopers
3x03. Supply Lines
3x04. Sphere of Influence
3x05. Corruption
3x06. The Academy
3x07. Assassin
3x08. Evil Plans
3x09. Hunt for Ziro
3x10. Heroes on Both Sides
3x11. Pursuit of Peace
3x12. Nightsisters
3x13. Monster
3x14. Witches of the Mist
3x15. Overlords
3x16. Altar of Mortis
3x17. Ghosts of Mortis
3x18. The Citadel
3x19. Counter Attack
3x20. Citadel Rescue
3x21. Padawan Lost
3x22. Wookiee Hunt
Якість:
Відео:
кодек:
розмір кадру: 1920 х 816
бітрейт: 7 708 - 8 245 кб/с

Аудіо # 1:
мова: українська
переклад: багатоголосий закадровий
кодек: 2.0
бітрейт: 192 кб/с

Аудіо # 2:
мова: англійська
переклад: оригінал
кодек: 5.1
бітрейт: 640 кб/с

Субтитри:
мова: англійська
тип: програмні (м'які)
формат: *.srt
Info
General
Unique ID : 232184754238512587239347541516439277291 (0xAEAD2836838707D94C66231BE74C4EEB)
Complete name : Star.Wars.The.Clone.Wars.S03E03..1080p.Ukr.Eng.Hurtom.
Format :
Format version : Version 4
File size : 1.35 GiB
Duration : 22 min 32 s
Overall bit rate : 8 581 kb/s
Movie name : 3x03. Supply Lines
Encoded date : UTC 2021-01-31 17:51:03
Writing application : v53.0.0 ('Fool's Gold') 64-bit
Writing library : libebml v1.4.1 + v1.6.2

Video
ID : 1
Format : AVC
Format/Info : Advanced Video Codec
Format profile : [email protected]
Format settings : CABAC / 5 Ref Frames
Format settings, CABAC : Yes
Format settings, Reference : 5 frames
Codec ID : V_MPEG4/ISO/AVC
Duration : 22 min 32 s
Bit rate : 7 749 kb/s
Width : 1 920 pixels
Height : 816 pixels
Display aspect ratio : 2.35:1
Frame rate mode : Constant
Frame rate : 23.976 (24000/1001) FPS
Color space : YUV
Chroma subsampling : 4:2:0
Bit depth : 8 bits
Scan type : Progressive
Bits/(Pixel*Frame) : 0.206
Stream size : 1.22 GiB (90%)
Title : AVC 1920*816 @ 7 749 kb/s
Writing library : core 118 r2085 8a62835
Encoding settings : cabac=1 / ref=5 / deblock=1:0:0 / analyse=0x3:0x113 / me=umh / subme=7 / psy=1 / psy_rd=1.00:0.00 / mixed_ref=1 / me_range=16 / chroma_me=1 / trellis=1 / 8x8dct=1 / cqm=0 / deadzone=21,11 / fast_pskip=0 / chroma_qp_offset=-2 / threads=18 / sliced_threads=0 / nr=0 / decimate=1 / interlaced=0 / bluray_compat=0 / constrained_intra=0 / bframes=3 / b_pyramid=2 / b_adapt=1 / b_bias=0 / direct=1 / weightb=1 / open_gop=0 / weightp=2 / keyint=250 / keyint_min=23 / scenecut=40 / intra_refresh=0 / rc_lookahead=40 / rc=2pass / mbtree=1 / bitrate=7749 / ratetol=1.0 / qcomp=0.60 / qpmin=0 / qpmax=69 / qpstep=4 / cplxblur=20.0 / qblur=0.5 / ip_ratio=1.40 / aq=1:1.00
Language : English
Default : Yes
Forced : Yes

Audio #1
ID : 2
Format : AC-3
Format/Info : Audio Coding 3
Commercial name : Dolby Digital
Codec ID : A_AC3
Duration : 22 min 30 s
Bit rate mode : Constant
Bit rate : 192 kb/s
Channel(s) : 2 channels
Channel layout : L R
Sampling rate : 48.0 kHz
Frame rate : 31.250 FPS (1536 SPF)
Compression mode : Lossy
Stream size : 30.9 MiB (2%)
Title : AC-3 2.0 @ 192 kb/s # QTV
Language : Ukrainian
Service kind : Complete Main
Default : Yes
Forced : Yes

Audio #2
ID : 3
Format : AC-3
Format/Info : Audio Coding 3
Commercial name : Dolby Digital
Codec ID : A_AC3
Duration : 22 min 32 s
Bit rate mode : Constant
Bit rate : 640 kb/s
Channel(s) : 6 channels
Channel layout : L R C LFE Ls Rs
Sampling rate : 48.0 kHz
Frame rate : 31.250 FPS (1536 SPF)
Compression mode : Lossy
Stream size : 103 MiB (7%)
Title : AC-3 5.1 @ 640 kb/s
Language : English
Service kind : Complete Main
Default : No
Forced : No

Text
ID : 4
Format : UTF-8
Codec ID : S_TEXT/UTF8
Codec ID/Info : UTF-8 Plain Text
Duration : 22 min 13 s
Bit rate : 74 b/s
Count of elements : 283
Stream size : 12.1 KiB (0%)
Title : Full
Language : English
Default : No
Forced : No
Скріншоти









За доріжку 1 подяка пану aaa4523
За інформаційне наповнення та титульний реліз подяка пану radagastr.

Джерело:
Особиста оцінка: 8 - мені сподобалося



Бронзовий реліз (на рейтинг впливає 75% завантаженого)
 Трекер:    Зареєстрований   

Завантажити / скачати мультфільм українською



відео для новачків



 Зареєстрований:   2021-02-01 18:05
 Розмір:   29.73 GB 
 Оцінка мультсеріалу:   10/10 (Голосів: 1)
   
bot 
робот


З нами з: 30.09.07
Востаннє: 26.05.05
Повідомлень: 27938

2021-01-30 17:07  
Тему перенесено з Мультсеріали в HD до форуму Анонси релізів


Argentum

bot 
робот


З нами з: 30.09.07
Востаннє: 26.05.05
Повідомлень: 27938

2021-02-01 18:05  
Тему перенесено з Анонси релізів до форуму Мультсеріали в HD


Argentum

Ваш часовий пояс: GMT + 2 Години

Нова тема   Відповісти